  0
SECTION
  2
HEADER
  9
$ACADVER
  1
AC1015
  9
$ACADMAINTVER
 70
    20
  9
$DWGCODEPAGE
  3
ANSI_1252
  9
$INSBASE
 10
0.0
 20
0.0
 30
0.0
  9
$EXTMIN
 10
0.1299999947623005
 20
0.1299999947623005
 30
0.0
  9
$EXTMAX
 10
10.87000013336422
 20
8.369999983179287
 30
0.0
  9
$LIMMIN
 10
0.0
 20
0.0
  9
$LIMMAX
 10
11.0
 20
8.5
  9
$ORTHOMODE
 70
     0
  9
$REGENMODE
 70
     1
  9
$FILLMODE
 70
     1
  9
$QTEXTMODE
 70
     0
  9
$MIRRTEXT
 70
     0
  9
$LTSCALE
 40
1.0
  9
$ATTMODE
 70
     1
  9
$TEXTSIZE
 40
0.2
  9
$TRACEWID
 40
0.05
  9
$TEXTSTYLE
  7
Standard
  9
$CLAYER
  8
0
  9
$CELTYPE
  6
ByLayer
  9
$CECOLOR
 62
   256
  9
$CELTSCALE
 40
1.0
  9
$DISPSILH
 70
     0
  9
$DIMSCALE
 40
1.0
  9
$DIMASZ
 40
0.0708661417322835
  9
$DIMEXO
 40
0.0625
  9
$DIMDLI
 40
0.38
  9
$DIMRND
 40
0.0
  9
$DIMDLE
 40
0.0
  9
$DIMEXE
 40
0.18
  9
$DIMTP
 40
0.0
  9
$DIMTM
 40
0.0
  9
$DIMTXT
 40
0.3048000037670135
  9
$DIMCEN
 40
0.09
  9
$DIMTSZ
 40
0.0
  9
$DIMTOL
 70
     0
  9
$DIMLIM
 70
     0
  9
$DIMTIH
 70
     1
  9
$DIMTOH
 70
     1
  9
$DIMSE1
 70
     0
  9
$DIMSE2
 70
     0
  9
$DIMTAD
 70
     0
  9
$DIMZIN
 70
     0
  9
$DIMBLK
  1

  9
$DIMASO
 70
     1
  9
$DIMSHO
 70
     1
  9
$DIMPOST
  1

  9
$DIMAPOST
  1

  9
$DIMALT
 70
     0
  9
$DIMALTD
 70
     2
  9
$DIMALTF
 40
25.4
  9
$DIMLFAC
 40
1.0
  9
$DIMTOFL
 70
     0
  9
$DIMTVP
 40
0.0
  9
$DIMTIX
 70
     0
  9
$DIMSOXD
 70
     0
  9
$DIMSAH
 70
     0
  9
$DIMBLK1
  1

  9
$DIMBLK2
  1

  9
$DIMSTYLE
  2
Standard
  9
$DIMCLRD
 70
     0
  9
$DIMCLRE
 70
     0
  9
$DIMCLRT
 70
     0
  9
$DIMTFAC
 40
1.0
  9
$DIMGAP
 40
0.09
  9
$DIMJUST
 70
     0
  9
$DIMSD1
 70
     0
  9
$DIMSD2
 70
     0
  9
$DIMTOLJ
 70
     1
  9
$DIMTZIN
 70
     0
  9
$DIMALTZ
 70
     0
  9
$DIMALTTZ
 70
     0
  9
$DIMUPT
 70
     0
  9
$DIMDEC
 70
     4
  9
$DIMTDEC
 70
     4
  9
$DIMALTU
 70
     2
  9
$DIMALTTD
 70
     2
  9
$DIMTXSTY
  7
Standard
  9
$DIMAUNIT
 70
     0
  9
$DIMADEC
 70
     0
  9
$DIMALTRND
 40
0.0
  9
$DIMAZIN
 70
     0
  9
$DIMDSEP
 70
    46
  9
$DIMATFIT
 70
     3
  9
$DIMFRAC
 70
     0
  9
$DIMLDRBLK
  1

  9
$DIMLUNIT
 70
     2
  9
$DIMLWD
 70
    -2
  9
$DIMLWE
 70
    -2
  9
$DIMTMOVE
 70
     0
  9
$LUNITS
 70
     2
  9
$LUPREC
 70
     4
  9
$SKETCHINC
 40
0.1
  9
$FILLETRAD
 40
0.0
  9
$AUNITS
 70
     0
  9
$AUPREC
 70
     0
  9
$MENU
  1
.
  9
$ELEVATION
 40
0.0
  9
$PELEVATION
 40
0.0
  9
$THICKNESS
 40
0.0
  9
$LIMCHECK
 70
     0
  9
$CHAMFERA
 40
0.0
  9
$CHAMFERB
 40
0.0
  9
$CHAMFERC
 40
0.0
  9
$CHAMFERD
 40
0.0
  9
$SKPOLY
 70
     0
  9
$TDCREATE
 40
2455861.507510382
  9
$TDUCREATE
 40
2455861.715843715
  9
$TDUPDATE
 40
2455861.508871493
  9
$TDUUPDATE
 40
2455861.717204827
  9
$TDINDWG
 40
0.0004398380
  9
$TDUSRTIMER
 40
0.0004398148
  9
$USRTIMER
 70
     1
  9
$ANGBASE
 50
0.0
  9
$ANGDIR
 70
     0
  9
$PDMODE
 70
     0
  9
$PDSIZE
 40
0.0
  9
$PLINEWID
 40
0.0
  9
$SPLFRAME
 70
     0
  9
$SPLINETYPE
 70
     6
  9
$SPLINESEGS
 70
     8
  9
$HANDSEED
  5
98D
  9
$SURFTAB1
 70
     6
  9
$SURFTAB2
 70
     6
  9
$SURFTYPE
 70
     6
  9
$SURFU
 70
     6
  9
$SURFV
 70
     6
  9
$UCSBASE
  2

  9
$UCSNAME
  2

  9
$UCSORG
 10
0.0
 20
0.0
 30
0.0
  9
$UCSXDIR
 10
1.0
 20
0.0
 30
0.0
  9
$UCSYDIR
 10
0.0
 20
1.0
 30
0.0
  9
$UCSORTHOREF
  2

  9
$UCSORTHOVIEW
 70
     0
  9
$UCSORGTOP
 10
0.0
 20
0.0
 30
0.0
  9
$UCSORGBOTTOM
 10
0.0
 20
0.0
 30
0.0
  9
$UCSORGLEFT
 10
0.0
 20
0.0
 30
0.0
  9
$UCSORGRIGHT
 10
0.0
 20
0.0
 30
0.0
  9
$UCSORGFRONT
 10
0.0
 20
0.0
 30
0.0
  9
$UCSORGBACK
 10
0.0
 20
0.0
 30
0.0
  9
$PUCSBASE
  2

  9
$PUCSNAME
  2

  9
$PUCSORG
 10
0.0
 20
0.0
 30
0.0
  9
$PUCSXDIR
 10
1.0
 20
0.0
 30
0.0
  9
$PUCSYDIR
 10
0.0
 20
1.0
 30
0.0
  9
$PUCSORTHOREF
  2

  9
$PUCSORTHOVIEW
 70
     0
  9
$PUCSORGTOP
 10
0.0
 20
0.0
 30
0.0
  9
$PUCSORGBOTTOM
 10
0.0
 20
0.0
 30
0.0
  9
$PUCSORGLEFT
 10
0.0
 20
0.0
 30
0.0
  9
$PUCSORGRIGHT
 10
0.0
 20
0.0
 30
0.0
  9
$PUCSORGFRONT
 10
0.0
 20
0.0
 30
0.0
  9
$PUCSORGBACK
 10
0.0
 20
0.0
 30
0.0
  9
$USERI1
 70
     0
  9
$USERI2
 70
     0
  9
$USERI3
 70
     0
  9
$USERI4
 70
     0
  9
$USERI5
 70
     0
  9
$USERR1
 40
0.0
  9
$USERR2
 40
0.0
  9
$USERR3
 40
0.0
  9
$USERR4
 40
0.0
  9
$USERR5
 40
0.0
  9
$WORLDVIEW
 70
     1
  9
$SHADEDGE
 70
     3
  9
$SHADEDIF
 70
    70
  9
$TILEMODE
 70
     1
  9
$MAXACTVP
 70
    64
  9
$PINSBASE
 10
0.0
 20
0.0
 30
0.0
  9
$PLIMCHECK
 70
     0
  9
$PEXTMIN
 10
0.0
 20
0.0
 30
0.0
  9
$PEXTMAX
 10
11.0
 20
8.5
 30
0.0
  9
$PLIMMIN
 10
0.0
 20
0.0
  9
$PLIMMAX
 10
11.0
 20
8.5
  9
$UNITMODE
 70
     0
  9
$VISRETAIN
 70
     1
  9
$PLINEGEN
 70
     0
  9
$PSLTSCALE
 70
     1
  9
$TREEDEPTH
 70
  3020
  9
$CMLSTYLE
  2
Standard
  9
$CMLJUST
 70
     0
  9
$CMLSCALE
 40
1.0
  9
$PROXYGRAPHICS
 70
     1
  9
$MEASUREMENT
 70
     0
  9
$CELWEIGHT
370
    -1
  9
$ENDCAPS
280
     0
  9
$JOINSTYLE
280
     0
  9
$LWDISPLAY
290
     0
  9
$INSUNITS
 70
     1
  9
$HYPERLINKBASE
  1

  9
$STYLESHEET
  1

  9
$XEDIT
290
     1
  9
$CEPSNTYPE
380
     0
  9
$PSTYLEMODE
290
     1
  9
$FINGERPRINTGUID
  2
{BFCD6767-71CE-4D08-BB7C-A7566F41CD2E}
  9
$VERSIONGUID
  2
{FEEC2887-87A7-4563-B1DA-AE033CEA1155}
  9
$EXTNAMES
290
     1
  9
$PSVPSCALE
 40
0.0
  9
$OLESTARTUP
290
     0
  0
ENDSEC
  0
SECTION
  2
CLASSES
  0
CLASS
  1
ACDBDICTIONARYWDFLT
  2
AcDbDictionaryWithDefault
  3
ObjectDBX Classes
 90
        0
280
     0
281
     0
  0
CLASS
  1
MATERIAL
  2
AcDbMaterial
  3
ObjectDBX Classes
 90
     1153
280
     0
281
     0
  0
CLASS
  1
VISUALSTYLE
  2
AcDbVisualStyle
  3
ObjectDBX Classes
 90
     4095
280
     0
281
     0
  0
CLASS
  1
SCALE
  2
AcDbScale
  3
ObjectDBX Classes
 90
     1153
280
     0
281
     0
  0
CLASS
  1
TABLESTYLE
  2
AcDbTableStyle
  3
ObjectDBX Classes
 90
     4095
280
     0
281
     0
  0
CLASS
  1
MLEADERSTYLE
  2
AcDbMLeaderStyle
  3
ACDB_MLEADERSTYLE_CLASS
 90
     4095
280
     0
281
     0
  0
CLASS
  1
DICTIONARYVAR
  2
AcDbDictionaryVar
  3
ObjectDBX Classes
 90
        0
280
     0
281
     0
  0
CLASS
  1
CELLSTYLEMAP
  2
AcDbCellStyleMap
  3
ObjectDBX Classes
 90
     1152
280
     0
281
     0
  0
CLASS
  1
ACDBPLACEHOLDER
  2
AcDbPlaceHolder
  3
ObjectDBX Classes
 90
        0
280
     0
281
     0
  0
CLASS
  1
LAYOUT
  2
AcDbLayout
  3
ObjectDBX Classes
 90
        0
280
     0
281
     0
  0
CLASS
  1
EXACXREFPANELOBJECT
  2
ExAcXREFPanelObject
  3
EXAC_ESW
 90
     1025
280
     0
281
     0
  0
CLASS
  1
NPOCOLLECTION
  2
AcDbImpNonPersistentObjectsCollection
  3
ObjectDBX Classes
 90
     1153
280
     0
281
     0
  0
ENDSEC
  0
SECTION
  2
TABLES
  0
TABLE
  2
VPORT
  5
8
330
0
100
AcDbSymbolTable
 70
     1
  0
VPORT
  5
57
330
8
100
AcDbSymbolTableRecord
100
AcDbViewportTableRecord
  2
*Active
 70
     0
 10
0.0
 20
0.0
 11
1.0
 21
1.0
 12
7.905913978494625
 22
4.25
 13
0.0
 23
0.0
 14
1.0
 24
1.0
 15
0.0
 25
0.0
 16
0.0
 26
0.0
 36
1.0
 17
0.0
 27
0.0
 37
0.0
 40
7.470703125
 41
2.116796440489432
 42
50.0
 43
0.0
 44
0.0
 50
0.0
 51
0.0
 71
     0
 72
   100
 73
     1
 74
     1
 75
     0
 76
     0
 77
     0
 78
     0
281
     0
 65
     1
110
0.0
120
0.0
130
0.0
111
1.0
121
0.0
131
0.0
112
0.0
122
1.0
132
0.0
 79
     0
146
0.0
1001
ACAD_NAV_VCDISPLAY
1070
     3
  0
ENDTAB
  0
TABLE
  2
LTYPE
  5
5
330
0
100
AcDbSymbolTable
 70
    59
  0
LTYPE
  5
5B
330
5
100
AcDbSymbolTableRecord
100
AcDbLinetypeTableRecord
  2
ByBlock
 70
     0
  3

 72
    65
 73
     0
 40
0.0
  0
LTYPE
  5
5C
330
5
100
AcDbSymbolTableRecord
100
AcDbLinetypeTableRecord
  2
ByLayer
 70
     0
  3

 72
    65
 73
     0
 40
0.0
  0
LTYPE
  5
5D
330
5
100
AcDbSymbolTableRecord
100
AcDbLinetypeTableRecord
  2
Continuous
 70
     0
  3
Solid line
 72
    65
 73
     0
 40
0.0
  0
LTYPE
  5
74
330
5
100
AcDbSymbolTableRecord
100
AcDbLinetypeTableRecord
  2
BY_STANDARD
 70
     0
  3
By Standard ____________    ____    ____   _
 72
    65
 73
     6
 40
1.240299999999998
 49
0.6614
 74
     0
 49
-0.0827
 74
     0
 49
0.1654
 74
     0
 49
-0.0827
 74
     0
 49
0.1654
 74
     0
 49
-0.0827
 74
     0
  0
LTYPE
  5
75
330
5
100
AcDbSymbolTableRecord
100
AcDbLinetypeTableRecord
  2
CHAIN
 70
     0
  3
Chain ____ _ ____ _ ____ _ ____ _ ____ _ ____
 72
    65
 73
     4
 40
0.7087
 49
0.4724000000000001
 74
     0
 49
-0.0591
 74
     0
 49
0.1181
 74
     0
 49
-0.0591
 74
     0
  0
LTYPE
  5
76
330
5
100
AcDbSymbolTableRecord
100
AcDbLinetypeTableRecord
  2
DASH_DOT
 70
     0
  3
Dash dot __ . __ . __ . __ . __ . __ . __ . __
 72
    65
 73
     4
 40
0.37
 49
0.24
 74
     0
 49
-0.06
 74
     0
 49
0.01
 74
     0
 49
-0.06
 74
     0
  0
LTYPE
  5
77
330
5
100
AcDbSymbolTableRecord
100
AcDbLinetypeTableRecord
  2
DOUBLE_DASH_DOT
 70
     0
  3
Double-Dash Dot __ __ . __ __ . __ __ . __ _
 72
    65
 73
     6
 40
0.4398000000000001
 49
0.24
 74
     0
 49
-0.06
 74
     0
 49
0.0098
 74
     0
 49
-0.06
 74
     0
 49
0.01
 74
     0
 49
-0.06
 74
     0
  0
LTYPE
  5
78
330
5
100
AcDbSymbolTableRecord
100
AcDbLinetypeTableRecord
  2
DASH_TRIPLE_DOT
 70
     0
  3
Dash Triple-Dot _ . . . _ . . . _ . . . _
 72
    65
 73
     8
 40
0.51
 49
0.24
 74
     0
 49
-0.06
 74
     0
 49
0.01
 74
     0
 49
-0.06
 74
     0
 49
0.01
 74
     0
 49
-0.06
 74
     0
 49
0.01
 74
     0
 49
-0.06
 74
     0
  0
LTYPE
  5
79
330
5
100
AcDbSymbolTableRecord
100
AcDbLinetypeTableRecord
  2
DASHED
 70
     0
  3
Dashed __ __ __ __ __ __ __ __ __ __ __ __ __ _
 72
    65
 73
     2
 40
0.2067
 49
0.1654
 74
     0
 49
-0.0413
 74
     0
  0
LTYPE
  5
7A
330
5
100
AcDbSymbolTableRecord
100
AcDbLinetypeTableRecord
  2
DASH_DOUBLE_DOT
 70
     0
  3
Dash Double-Dot __ . . __ . . __ . . __ . .
 72
    65
 73
     6
 40
0.4398000000000001
 49
0.24
 74
     0
 49
-0.06
 74
     0
 49
0.0098
 74
     0
 49
-0.06
 74
     0
 49
0.01
 74
     0
 49
-0.06
 74
     0
  0
LTYPE
  5
7B
330
5
100
AcDbSymbolTableRecord
100
AcDbLinetypeTableRecord
  2
DASHED_SPACE
 70
     0
  3
Dashed Space __ __ __ __ __ __ __ __ __ __ __ _
 72
    65
 73
     2
 40
0.2067
 49
0.1654
 74
     0
 49
-0.0413
 74
     0
  0
LTYPE
  5
7C
330
5
100
AcDbSymbolTableRecord
100
AcDbLinetypeTableRecord
  2
DOTTED
 70
     0
  3
Dotted . . . . . . . . . . . . . . . . . . . . 
 72
    65
 73
     2
 40
0.0482
 49
0.0069
 74
     0
 49
-0.0413
 74
     0
  0
LTYPE
  5
7D
330
5
100
AcDbSymbolTableRecord
100
AcDbLinetypeTableRecord
  2
DOUBLE_DASH_CHAIN
 70
     0
  3
Double-Dash Chain ______  __  __  ______  __  _
 72
    65
 73
     6
 40
1.240299999999998
 49
0.6614
 74
     0
 49
-0.0827
 74
     0
 49
0.1654
 74
     0
 49
-0.0827
 74
     0
 49
0.1654
 74
     0
 49
-0.0827
 74
     0
  0
LTYPE
  5
7F
330
5
100
AcDbSymbolTableRecord
100
AcDbLinetypeTableRecord
  2
DOUBLE_DASH_DOUBLE_DOT
 70
     0
  3
Double-Dash Double-dot _ _ . . _ _ . . _
 72
    65
 73
     8
 40
0.7400000000000002
 49
0.24
 74
     0
 49
-0.06
 74
     0
 49
0.24
 74
     0
 49
-0.06
 74
     0
 49
0.01
 74
     0
 49
-0.06
 74
     0
 49
0.01
 74
     0
 49
-0.06
 74
     0
  0
LTYPE
  5
80
330
5
100
AcDbSymbolTableRecord
100
AcDbLinetypeTableRecord
  2
DOUBLE_DASH_TRIPLE_DOT
 70
     0
  3
Double Dash Triple Dot __ __ . . . __ __ . .
 72
    65
 73
    10
 40
0.8100000000000001
 49
0.24
 74
     0
 49
-0.06
 74
     0
 49
0.24
 74
     0
 49
-0.06
 74
     0
 49
0.01
 74
     0
 49
-0.06
 74
     0
 49
0.01
 74
     0
 49
-0.06
 74
     0
 49
0.01
 74
     0
 49
-0.06
 74
     0
  0
LTYPE
  5
81
330
5
100
AcDbSymbolTableRecord
100
AcDbLinetypeTableRecord
  2
LONG_DASH_DOTTED
 70
     0
  3
Long Dash Dotted ____ . ____ . ____ . ____ . _
 72
    65
 73
     4
 40
0.3543
 49
0.2362
 74
     0
 49
-0.0295
 74
     0
 49
0.0591
 74
     0
 49
-0.0295
 74
     0
  0
LTYPE
  5
82
330
5
100
AcDbSymbolTableRecord
100
AcDbLinetypeTableRecord
  2
LONG_DASH_DOUBLE_DOT
 70
     0
  3
Long Dash Double Dot ________  .  .  ________  
 72
    65
 73
     6
 40
0.6799999999999999
 49
0.48
 74
     0
 49
-0.06
 74
     0
 49
0.01
 74
     0
 49
-0.06
 74
     0
 49
0.01
 74
     0
 49
-0.06
 74
     0
  0
LTYPE
  5
83
330
5
100
AcDbSymbolTableRecord
100
AcDbLinetypeTableRecord
  2
LONG_DASH_TRIPLE_DOT
 70
     0
  3
Long Dash Triple Dot ____ ... ____ ... ____
 72
    65
 73
     8
 40
0.3689
 49
0.2362
 74
     0
 49
-0.0295
 74
     0
 49
0.0049
 74
     0
 49
-0.0295
 74
     0
 49
0.0049
 74
     0
 49
-0.0295
 74
     0
 49
0.0049
 74
     0
 49
-0.0295
 74
     0
  0
LTYPE
  5
84
330
5
100
AcDbSymbolTableRecord
100
AcDbLinetypeTableRecord
  2
BORDER
 70
     0
  3
Border __ __ . __ __ . __ __ . __ __ . __ __ .
 72
    65
 73
     6
 40
1.75
 49
0.5
 74
     0
 49
-0.25
 74
     0
 49
0.5
 74
     0
 49
-0.25
 74
     0
 49
0.0
 74
     0
 49
-0.25
 74
     0
  0
LTYPE
  5
85
330
5
100
AcDbSymbolTableRecord
100
AcDbLinetypeTableRecord
  2
BORDER2
 70
     0
  3
Border (.5x) __.__.__.__.__.__.__.__.__.__.__.
 72
    65
 73
     6
 40
0.875
 49
0.25
 74
     0
 49
-0.125
 74
     0
 49
0.25
 74
     0
 49
-0.125
 74
     0
 49
0.0
 74
     0
 49
-0.125
 74
     0
  0
LTYPE
  5
86
330
5
100
AcDbSymbolTableRecord
100
AcDbLinetypeTableRecord
  2
BORDERX2
 70
     0
  3
Border (2x) ____  ____  .  ____  ____  .  ___
 72
    65
 73
     6
 40
3.5
 49
1.0
 74
     0
 49
-0.5
 74
     0
 49
1.0
 74
     0
 49
-0.5
 74
     0
 49
0.0
 74
     0
 49
-0.5
 74
     0
  0
LTYPE
  5
87
330
5
100
AcDbSymbolTableRecord
100
AcDbLinetypeTableRecord
  2
CENTER
 70
     0
  3
Center ____ _ ____ _ ____ _ ____ _ ____ _ ____
 72
    65
 73
     4
 40
2.0
 49
1.25
 74
     0
 49
-0.25
 74
     0
 49
0.25
 74
     0
 49
-0.25
 74
     0
  0
LTYPE
  5
88
330
5
100
AcDbSymbolTableRecord
100
AcDbLinetypeTableRecord
  2
CENTER2
 70
     0
  3
Center (.5x) ___ _ ___ _ ___ _ ___ _ ___ _ ___
 72
    65
 73
     4
 40
1.125
 49
0.75
 74
     0
 49
-0.125
 74
     0
 49
0.125
 74
     0
 49
-0.125
 74
     0
  0
LTYPE
  5
89
330
5
100
AcDbSymbolTableRecord
100
AcDbLinetypeTableRecord
  2
CENTERX2
 70
     0
  3
Center (2x) ________  __  ________  __  _____
 72
    65
 73
     4
 40
4.0
 49
2.5
 74
     0
 49
-0.5
 74
     0
 49
0.5
 74
     0
 49
-0.5
 74
     0
  0
LTYPE
  5
8A
330
5
100
AcDbSymbolTableRecord
100
AcDbLinetypeTableRecord
  2
DASHDOT2
 70
     0
  3
Dash dot (.5x) _._._._._._._._._._._._._._._.
 72
    65
 73
     4
 40
0.5
 49
0.25
 74
     0
 49
-0.125
 74
     0
 49
0.0
 74
     0
 49
-0.125
 74
     0
  0
LTYPE
  5
8B
330
5
100
AcDbSymbolTableRecord
100
AcDbLinetypeTableRecord
  2
DASHDOTX2
 70
     0
  3
Dash dot (2x) ____  .  ____  .  ____  .  ___
 72
    65
 73
     4
 40
2.0
 49
1.0
 74
     0
 49
-0.5
 74
     0
 49
0.0
 74
     0
 49
-0.5
 74
     0
  0
LTYPE
  5
8D
330
5
100
AcDbSymbolTableRecord
100
AcDbLinetypeTableRecord
  2
DASHED2
 70
     0
  3
Dashed (.5x) _ _ _ _ _ _ _ _ _ _ _ _ _ _ _ _ _
 72
    65
 73
     2
 40
0.375
 49
0.25
 74
     0
 49
-0.125
 74
     0
  0
LTYPE
  5
8E
330
5
100
AcDbSymbolTableRecord
100
AcDbLinetypeTableRecord
  2
DASHEDX2
 70
     0
  3
Dashed (2x) ____  ____  ____  ____  ____  ___
 72
    65
 73
     2
 40
1.5
 49
1.0
 74
     0
 49
-0.5
 74
     0
  0
LTYPE
  5
8F
330
5
100
AcDbSymbolTableRecord
100
AcDbLinetypeTableRecord
  2
DIVIDE
 70
     0
  3
Divide ____ . . ____ . . ____ . . ____ . . ____
 72
    65
 73
     6
 40
1.25
 49
0.5
 74
     0
 49
-0.25
 74
     0
 49
0.0
 74
     0
 49
-0.25
 74
     0
 49
0.0
 74
     0
 49
-0.25
 74
     0
  0
LTYPE
  5
90
330
5
100
AcDbSymbolTableRecord
100
AcDbLinetypeTableRecord
  2
DIVIDE2
 70
     0
  3
Divide (.5x) __..__..__..__..__..__..__..__.._
 72
    65
 73
     6
 40
0.625
 49
0.25
 74
     0
 49
-0.125
 74
     0
 49
0.0
 74
     0
 49
-0.125
 74
     0
 49
0.0
 74
     0
 49
-0.125
 74
     0
  0
LTYPE
  5
91
330
5
100
AcDbSymbolTableRecord
100
AcDbLinetypeTableRecord
  2
DIVIDEX2
 70
     0
  3
Divide (2x) ________  .  .  ________  .  .  _
 72
    65
 73
     6
 40
2.5
 49
1.0
 74
     0
 49
-0.5
 74
     0
 49
0.0
 74
     0
 49
-0.5
 74
     0
 49
0.0
 74
     0
 49
-0.5
 74
     0
  0
LTYPE
  5
92
330
5
100
AcDbSymbolTableRecord
100
AcDbLinetypeTableRecord
  2
DOT
 70
     0
  3
Dot . . . . . . . . . . . . . . . . . . . . . .
 72
    65
 73
     2
 40
0.25
 49
0.0
 74
     0
 49
-0.25
 74
     0
  0
LTYPE
  5
93
330
5
100
AcDbSymbolTableRecord
100
AcDbLinetypeTableRecord
  2
DOT2
 70
     0
  3
Dot (.5x) .....................................
 72
    65
 73
     2
 40
0.125
 49
0.0
 74
     0
 49
-0.125
 74
     0
  0
LTYPE
  5
94
330
5
100
AcDbSymbolTableRecord
100
AcDbLinetypeTableRecord
  2
DOTX2
 70
     0
  3
Dot (2x) .  .  .  .  .  .  .  .  .  .  .  .  . 
 72
    65
 73
     2
 40
0.5
 49
0.0
 74
     0
 49
-0.5
 74
     0
  0
LTYPE
  5
95
330
5
100
AcDbSymbolTableRecord
100
AcDbLinetypeTableRecord
  2
HIDDEN
 70
     0
  3
Hidden __ __ __ __ __ __ __ __ __ __ __ __ __ _
 72
    65
 73
     2
 40
0.375
 49
0.25
 74
     0
 49
-0.125
 74
     0
  0
LTYPE
  5
96
330
5
100
AcDbSymbolTableRecord
100
AcDbLinetypeTableRecord
  2
HIDDEN2
 70
     0
  3
Hidden (.5x) _ _ _ _ _ _ _ _ _ _ _ _ _ _ _ _ _
 72
    65
 73
     2
 40
0.1875
 49
0.125
 74
     0
 49
-0.0625
 74
     0
  0
LTYPE
  5
97
330
5
100
AcDbSymbolTableRecord
100
AcDbLinetypeTableRecord
  2
HIDDENX2
 70
     0
  3
Hidden (2x) ____ ____ ____ ____ ____ ____ ____
 72
    65
 73
     2
 40
0.75
 49
0.5
 74
     0
 49
-0.25
 74
     0
  0
LTYPE
  5
98
330
5
100
AcDbSymbolTableRecord
100
AcDbLinetypeTableRecord
  2
PHANTOM
 70
     0
  3
Phantom ______  __  __  ______  __  __  ______
 72
    65
 73
     6
 40
2.5
 49
1.25
 74
     0
 49
-0.25
 74
     0
 49
0.25
 74
     0
 49
-0.25
 74
     0
 49
0.25
 74
     0
 49
-0.25
 74
     0
  0
LTYPE
  5
99
330
5
100
AcDbSymbolTableRecord
100
AcDbLinetypeTableRecord
  2
PHANTOM2
 70
     0
  3
Phantom (.5x) ___ _ _ ___ _ _ ___ _ _ ___ _ _
 72
    65
 73
     6
 40
1.25
 49
0.625
 74
     0
 49
-0.125
 74
     0
 49
0.125
 74
     0
 49
-0.125
 74
     0
 49
0.125
 74
     0
 49
-0.125
 74
     0
  0
LTYPE
  5
9A
330
5
100
AcDbSymbolTableRecord
100
AcDbLinetypeTableRecord
  2
PHANTOMX2
 70
     0
  3
Phantom (2x) ____________    ____    ____   _
 72
    65
 73
     6
 40
5.0
 49
2.5
 74
     0
 49
-0.5
 74
     0
 49
0.5
 74
     0
 49
-0.5
 74
     0
 49
0.5
 74
     0
 49
-0.5
 74
     0
  0
LTYPE
  5
9B
330
5
100
AcDbSymbolTableRecord
100
AcDbLinetypeTableRecord
  2
ACAD_ISO02W100
 70
     0
  3
ISO dash __ __ __ __ __ __ __ __ __ __ __ __ __
 72
    65
 73
     2
 40
0.59
 49
0.47
 74
     0
 49
-0.12
 74
     0
  0
LTYPE
  5
9C
330
5
100
AcDbSymbolTableRecord
100
AcDbLinetypeTableRecord
  2
ACAD_ISO03W100
 70
     0
  3
ISO dash space __    __    __    __    __    __
 72
    65
 73
     2
 40
1.179999999999999
 49
0.47
 74
     0
 49
-0.71
 74
     0
  0
LTYPE
  5
9D
330
5
100
AcDbSymbolTableRecord
100
AcDbLinetypeTableRecord
  2
ACAD_ISO04W100
 70
     0
  3
ISO long-dash dot ____ . ____ . ____ . ____ . _
 72
    65
 73
     4
 40
1.179999999999999
 49
0.9399999999999998
 74
     0
 49
-0.12
 74
     0
 49
0.0
 74
     0
 49
-0.12
 74
     0
  0
LTYPE
  5
9E
330
5
100
AcDbSymbolTableRecord
100
AcDbLinetypeTableRecord
  2
ACAD_ISO05W100
 70
     0
  3
ISO long-dash double-dot ____ .. ____ .. ____ .
 72
    65
 73
     6
 40
1.299999999999998
 49
0.9399999999999998
 74
     0
 49
-0.12
 74
     0
 49
0.0
 74
     0
 49
-0.12
 74
     0
 49
0.0
 74
     0
 49
-0.12
 74
     0
  0
LTYPE
  5
9F
330
5
100
AcDbSymbolTableRecord
100
AcDbLinetypeTableRecord
  2
ACAD_ISO06W100
 70
     0
  3
ISO long-dash triple-dot ____ ... ____ ... ____
 72
    65
 73
     8
 40
1.419999999999999
 49
0.9399999999999998
 74
     0
 49
-0.12
 74
     0
 49
0.0
 74
     0
 49
-0.12
 74
     0
 49
0.0
 74
     0
 49
-0.12
 74
     0
 49
0.0
 74
     0
 49
-0.12
 74
     0
  0
LTYPE
  5
A0
330
5
100
AcDbSymbolTableRecord
100
AcDbLinetypeTableRecord
  2
ACAD_ISO07W100
 70
     0
  3
ISO dot . . . . . . . . . . . . . . . . . . . .
 72
    65
 73
     2
 40
0.12
 49
0.0
 74
     0
 49
-0.12
 74
     0
  0
LTYPE
  5
A1
330
5
100
AcDbSymbolTableRecord
100
AcDbLinetypeTableRecord
  2
ACAD_ISO08W100
 70
     0
  3
ISO long-dash short-dash ____ __ ____ __ ____ _
 72
    65
 73
     4
 40
0.95
 49
0.47
 74
     0
 49
-0.12
 74
     0
 49
0.24
 74
     0
 49
-0.12
 74
     0
  0
LTYPE
  5
A2
330
5
100
AcDbSymbolTableRecord
100
AcDbLinetypeTableRecord
  2
ACAD_ISO09W100
 70
     0
  3
ISO long-dash double-short-dash ____ __ __ ____
 72
    65
 73
     6
 40
1.31
 49
0.47
 74
     0
 49
-0.12
 74
     0
 49
0.24
 74
     0
 49
-0.12
 74
     0
 49
0.24
 74
     0
 49
-0.12
 74
     0
  0
LTYPE
  5
A3
330
5
100
AcDbSymbolTableRecord
100
AcDbLinetypeTableRecord
  2
ACAD_ISO10W100
 70
     0
  3
ISO dash dot __ . __ . __ . __ . __ . __ . __ .
 72
    65
 73
     4
 40
0.71
 49
0.47
 74
     0
 49
-0.12
 74
     0
 49
0.0
 74
     0
 49
-0.12
 74
     0
  0
LTYPE
  5
A4
330
5
100
AcDbSymbolTableRecord
100
AcDbLinetypeTableRecord
  2
ACAD_ISO11W100
 70
     0
  3
ISO double-dash dot __ __ . __ __ . __ __ . __ 
 72
    65
 73
     6
 40
1.299999999999998
 49
0.47
 74
     0
 49
-0.12
 74
     0
 49
0.47
 74
     0
 49
-0.12
 74
     0
 49
0.0
 74
     0
 49
-0.12
 74
     0
  0
LTYPE
  5
A5
330
5
100
AcDbSymbolTableRecord
100
AcDbLinetypeTableRecord
  2
ACAD_ISO12W100
 70
     0
  3
ISO dash double-dot __ . . __ . . __ . . __ . .
 72
    65
 73
     6
 40
0.8299999999999998
 49
0.47
 74
     0
 49
-0.12
 74
     0
 49
0.0
 74
     0
 49
-0.12
 74
     0
 49
0.0
 74
     0
 49
-0.12
 74
     0
  0
LTYPE
  5
A6
330
5
100
AcDbSymbolTableRecord
100
AcDbLinetypeTableRecord
  2
ACAD_ISO13W100
 70
     0
  3
ISO double-dash double-dot __ __ . . __ __ . . 
 72
    65
 73
     8
 40
1.419999999999999
 49
0.47
 74
     0
 49
-0.12
 74
     0
 49
0.47
 74
     0
 49
-0.12
 74
     0
 49
0.0
 74
     0
 49
-0.12
 74
     0
 49
0.0
 74
     0
 49
-0.12
 74
     0
  0
LTYPE
  5
A7
330
5
100
AcDbSymbolTableRecord
100
AcDbLinetypeTableRecord
  2
ACAD_ISO14W100
 70
     0
  3
ISO dash triple-dot __ . . . __ . . . __ . . . 
 72
    65
 73
     8
 40
0.95
 49
0.47
 74
     0
 49
-0.12
 74
     0
 49
0.0
 74
     0
 49
-0.12
 74
     0
 49
0.0
 74
     0
 49
-0.12
 74
     0
 49
0.0
 74
     0
 49
-0.12
 74
     0
  0
LTYPE
  5
A8
330
5
100
AcDbSymbolTableRecord
100
AcDbLinetypeTableRecord
  2
ACAD_ISO15W100
 70
     0
  3
ISO double-dash triple-dot __ __ . . . __ __ . 
 72
    65
 73
    10
 40
1.539999999999999
 49
0.47
 74
     0
 49
-0.12
 74
     0
 49
0.47
 74
     0
 49
-0.12
 74
     0
 49
0.0
 74
     0
 49
-0.12
 74
     0
 49
0.0
 74
     0
 49
-0.12
 74
     0
 49
0.0
 74
     0
 49
-0.12
 74
     0
  0
LTYPE
  5
AB
330
5
100
AcDbSymbolTableRecord
100
AcDbLinetypeTableRecord
  2
FENCELINE1
 70
     0
  3
Fenceline circle ----0-----0----0-----0----0---
 72
    65
 73
     4
 40
1.45
 49
0.25
 74
     0
 49
-0.1
 74
     4
 75
   133
340
AA
 46
0.1
 50
0.0
 44
-0.1
 45
0.0
 49
-0.1
 74
     0
 49
1.0
 74
     0
  0
LTYPE
  5
AC
330
5
100
AcDbSymbolTableRecord
100
AcDbLinetypeTableRecord
  2
FENCELINE2
 70
     0
  3
Fenceline square ----[]-----[]----[]-----[]----
 72
    65
 73
     4
 40
1.45
 49
0.25
 74
     0
 49
-0.1
 74
     4
 75
   132
340
AA
 46
0.1
 50
0.0
 44
-0.1
 45
0.0
 49
-0.1
 74
     0
 49
1.0
 74
     0
  0
LTYPE
  5
AD
330
5
100
AcDbSymbolTableRecord
100
AcDbLinetypeTableRecord
  2
TRACKS
 70
     0
  3
Tracks -|-|-|-|-|-|-|-|-|-|-|-|-|-|-|-|-|-|-|-|
 72
    65
 73
     2
 40
0.3
 49
0.15
 74
     4
 75
   130
340
AA
 46
0.25
 50
0.0
 44
0.0
 45
0.0
 49
0.15
 74
     0
  0
LTYPE
  5
AE
330
5
100
AcDbSymbolTableRecord
100
AcDbLinetypeTableRecord
  2
BATTING
 70
     0
  3
Batting SSSSSSSSSSSSSSSSSSSSSSSSSSSSSSSSSSSSSSS
 72
    65
 73
     4
 40
0.4001000000000002
 49
0.0001
 74
     0
 49
-0.1
 74
     4
 75
   134
340
AA
 46
0.1
 50
0.0
 44
-0.1
 45
0.0
 49
-0.2
 74
     4
 75
   134
340
AA
 46
0.1
 50
180.0
 44
0.1
 45
0.0
 49
-0.1
 74
     0
  0
LTYPE
  5
AF
330
5
100
AcDbSymbolTableRecord
100
AcDbLinetypeTableRecord
  2
HOT_WATER_SUPPLY
 70
     0
  3
Hot water supply ---- HW ---- HW ---- HW ----
 72
    65
 73
     3
 40
0.9
 49
0.5
 74
     0
 49
-0.2
 74
     2
 75
     0
340
55
 46
0.1
 50
0.0
 44
-0.1
 45
-0.05
  9
HW
 49
-0.2
 74
     0
  0
LTYPE
  5
B0
330
5
100
AcDbSymbolTableRecord
100
AcDbLinetypeTableRecord
  2
GAS_LINE
 70
     0
  3
Gas line ----GAS----GAS----GAS----GAS----GAS---
 72
    65
 73
     3
 40
0.95
 49
0.5
 74
     0
 49
-0.2
 74
     2
 75
     0
340
55
 46
0.1
 50
0.0
 44
-0.1
 45
-0.05
  9
GAS
 49
-0.25
 74
     0
  0
LTYPE
  5
B1
330
5
100
AcDbSymbolTableRecord
100
AcDbLinetypeTableRecord
  2
ZIGZAG
 70
     0
  3
Zig zag /\/\/\/\/\/\/\/\/\/\/\/\/\/\/\/\/\/\/\/
 72
    65
 73
     4
 40
0.8001000000000001
 49
0.0001
 74
     0
 49
-0.2
 74
     4
 75
   131
340
AA
 46
0.2
 50
0.0
 44
-0.2
 45
0.0
 49
-0.4
 74
     4
 75
   131
340
AA
 46
0.2
 50
180.0
 44
0.2
 45
0.0
 49
-0.2
 74
     0
  0
ENDTAB
  0
TABLE
  2
LAYER
  5
2
330
0
100
AcDbSymbolTable
 70
     8
  0
LAYER
  5
54
330
2
100
AcDbSymbolTableRecord
100
AcDbLayerTableRecord
  2
0
 70
     0
 62
     7
  6
Continuous
370
    -3
390
F
  0
LAYER
  5
B5
330
2
100
AcDbSymbolTableRecord
100
AcDbLayerTableRecord
  2
Border (ANSI)
 70
     0
 62
     7
  6
Continuous
370
    70
390
F
  0
LAYER
  5
BA
330
2
100
AcDbSymbolTableRecord
100
AcDbLayerTableRecord
  2
Dimension (ANSI)
 70
     0
 62
     7
  6
Continuous
370
    25
390
F
  0
LAYER
  5
C3
330
2
100
AcDbSymbolTableRecord
100
AcDbLayerTableRecord
  2
Symbol (ANSI)
 70
     0
 62
     7
  6
Continuous
370
    25
390
F
  0
LAYER
  5
C4
330
2
100
AcDbSymbolTableRecord
100
AcDbLayerTableRecord
  2
Title (ANSI)
 70
     0
 62
     7
  6
Continuous
370
    50
390
F
  0
LAYER
  5
C6
330
2
100
AcDbSymbolTableRecord
100
AcDbLayerTableRecord
  2
Visible (ANSI)
 70
     0
 62
     7
  6
Continuous
370
    50
390
F
  0
LAYER
  5
C7
330
2
100
AcDbSymbolTableRecord
100
AcDbLayerTableRecord
  2
Visible Narrow (ANSI)
 70
     0
 62
     7
  6
Continuous
370
    35
390
F
  0
LAYER
  5
1AE
330
2
100
AcDbSymbolTableRecord
100
AcDbLayerTableRecord
  2
Defpoints
 70
     0
 62
     7
  6
Continuous
290
     0
370
    -3
390
F
  0
ENDTAB
  0
TABLE
  2
STYLE
  5
3
330
0
100
AcDbSymbolTable
 70
     8
  0
STYLE
  5
55
330
3
100
AcDbSymbolTableRecord
100
AcDbTextStyleTableRecord
  2
Standard
 70
     0
 40
0.0
 41
1.0
 50
0.0
 71
     0
 42
0.2
  3
tahoma.ttf
  4

1001
ACAD
1000
Tahoma
1071
      256
  0
STYLE
  5
5A
330
3
100
AcDbSymbolTableRecord
100
AcDbTextStyleTableRecord
  2
Annotative
 70
     0
 40
0.0
 41
1.0
 50
0.0
 71
     0
 42
0.2
  3
txt
  4

1001
AcadAnnotative
1000
AnnotativeData
1002
{
1070
     1
1070
     1
1002
}
  0
STYLE
  5
AA
330
3
100
AcDbSymbolTableRecord
100
AcDbTextStyleTableRecord
  2

 70
     1
 40
0.0
 41
1.0
 50
0.0
 71
     0
 42
0.2
  3
ltypeshp.shx
  4

  0
STYLE
  5
CB
330
3
100
AcDbSymbolTableRecord
100
AcDbTextStyleTableRecord
  2
Label Text (ANSI)
 70
     0
 40
0.0
 41
1.0
 50
0.0
 71
     0
 42
0.2
  3
tahoma.ttf
  4

1001
ACAD
1000
Tahoma
1071
      256
  0
STYLE
  5
CC
330
3
100
AcDbSymbolTableRecord
100
AcDbTextStyleTableRecord
  2
Note Text (ANSI)
 70
     0
 40
0.0
 41
1.0
 50
0.0
 71
     0
 42
0.2
  3
tahoma.ttf
  4

1001
ACAD
1000
Tahoma
1071
      256
  0
STYLE
  5
142
330
3
100
AcDbSymbolTableRecord
100
AcDbTextStyleTableRecord
  2
Text Style38
 70
     0
 40
0.0
 41
1.0
 50
0.0
 71
     0
 42
0.2
  3
tahoma.ttf
  4

1001
ACAD
1000
Tahoma
1071
      256
  0
STYLE
  5
14E
330
3
100
AcDbSymbolTableRecord
100
AcDbTextStyleTableRecord
  2
Text Style39
 70
     0
 40
0.0
 41
1.0
 50
0.0
 71
     0
 42
0.2
  3
tahoma.ttf
  4

1001
ACAD
1000
Tahoma
1071
      256
  0
STYLE
  5
158
330
3
100
AcDbSymbolTableRecord
100
AcDbTextStyleTableRecord
  2
Text Style30
 70
     0
 40
0.0
 41
1.0
 50
0.0
 71
     0
 42
0.2
  3
tahoma.ttf
  4

1001
ACAD
1000
Tahoma
1071
      256
  0
ENDTAB
  0
TABLE
  2
VIEW
  5
6
330
0
100
AcDbSymbolTable
 70
     0
  0
ENDTAB
  0
TABLE
  2
UCS
  5
7
330
0
100
AcDbSymbolTable
 70
     0
  0
ENDTAB
  0
TABLE
  2
APPID
  5
9
330
0
100
AcDbSymbolTable
 70
     5
  0
APPID
  5
56
330
9
100
AcDbSymbolTableRecord
100
AcDbRegAppTableRecord
  2
ACAD
 70
     0
  0
APPID
  5
5E
330
9
100
AcDbSymbolTableRecord
100
AcDbRegAppTableRecord
  2
AcadAnnotative
 70
     0
  0
APPID
  5
150
330
9
100
AcDbSymbolTableRecord
100
AcDbRegAppTableRecord
  2
AcadAnnoPO
 70
     0
  0
APPID
  5
909
330
9
100
AcDbSymbolTableRecord
100
AcDbRegAppTableRecord
  2
ACAD_MLEADERVER
 70
     0
  0
APPID
  5
91C
330
9
100
AcDbSymbolTableRecord
100
AcDbRegAppTableRecord
  2
ACAD_NAV_VCDISPLAY
 70
     0
  0
ENDTAB
  0
TABLE
  2
DIMSTYLE
  5
A
330
0
100
AcDbSymbolTable
 70
    15
100
AcDbDimStyleTable
 71
     2
340
D5
340
58
  0
DIMSTYLE
105
58
330
A
100
AcDbSymbolTableRecord
100
AcDbDimStyleTableRecord
  2
Standard
 70
     0
340
55
  0
DIMSTYLE
105
59
330
A
100
AcDbSymbolTableRecord
100
AcDbDimStyleTableRecord
  2
Annotative
 70
     0
340
55
1001
AcadAnnotative
1000
AnnotativeData
1002
{
1070
     1
1070
     1
1002
}
  0
DIMSTYLE
105
CD
330
A
100
AcDbSymbolTableRecord
100
AcDbDimStyleTableRecord
  2
Architectural (ANSI)
 70
     0
 41
0.0984251946210861
 43
0.2362204724409449
 44
0.125
 45
0.00000001
 46
0.3937007874015748
 78
     3
 79
     3
140
0.1200000047683716
147
0.031496062992126
171
     1
176
   256
177
   256
178
   256
272
     2
274
     1
276
     2
277
     4
284
    12
285
     4
286
    12
340
CC
371
    -1
372
    -1
  0
DIMSTYLE
105
CE
330
A
100
AcDbSymbolTableRecord
100
AcDbDimStyleTableRecord
  2
Architectural (ANSI)$7
 70
     0
 41
0.0984251946210861
 43
0.2362204724409449
 44
0.125
 45
0.00000001
 46
0.3937007874015748
 78
     3
 79
     3
140
0.1200000047683716
147
0.031496062992126
171
     1
176
   256
177
   256
178
   256
272
     2
274
     1
276
     2
277
     4
284
    12
285
     4
286
    12
340
CC
371
    -1
372
    -1
  0
DIMSTYLE
105
CF
330
A
100
AcDbSymbolTableRecord
100
AcDbDimStyleTableRecord
  2
Default - Fraction (ANSI)
 70
     0
 41
0.0984251946210861
 43
0.2362204724409449
 44
0.125
 45
0.00000001
 46
0.3937007874015748
 79
     3
140
0.1200000047683716
147
0.031496062992126
171
     1
176
   256
177
   256
178
   256
272
     2
274
     1
276
     2
277
     5
284
    12
285
     4
286
    12
340
CC
371
    -1
372
    -1
  0
DIMSTYLE
105
D0
330
A
100
AcDbSymbolTableRecord
100
AcDbDimStyleTableRecord
  2
Default - Fraction (ANSI)$7
 70
     0
 41
0.0984251946210861
 43
0.2362204724409449
 44
0.125
 45
0.00000001
 46
0.3937007874015748
 79
     3
140
0.1200000047683716
147
0.031496062992126
171
     1
176
   256
177
   256
178
   256
272
     2
274
     1
276
     2
277
     5
284
    12
285
     4
286
    12
340
CC
371
    -1
372
    -1
  0
DIMSTYLE
105
D1
330
A
100
AcDbSymbolTableRecord
100
AcDbDimStyleTableRecord
  2
Default - mm (ANSI)
 70
     0
 41
0.0984251946210861
 42
0.063
 43
0.2362204724409449
 44
0.125
 45
0.00000001
 46
0.3937007874015748
 73
     0
 78
     4
 79
     1
140
0.1200000047683716
143
1.0
144
25.4
147
0.031496062992126
171
     1
176
   256
177
   256
178
   256
179
     1
271
     2
272
     2
274
     1
284
     4
285
     4
340
CC
371
    -1
372
    -1
  0
DIMSTYLE
105
D2
330
A
100
AcDbSymbolTableRecord
100
AcDbDimStyleTableRecord
  2
Default - mm (ANSI)$7
 70
     0
 41
0.0984251946210861
 42
0.063
 43
0.2362204724409449
 44
0.125
 45
0.00000001
 46
0.3937007874015748
 73
     0
 78
     4
 79
     1
140
0.1200000047683716
143
1.0
144
25.4
147
0.031496062992126
171
     1
176
   256
177
   256
178
   256
179
     1
271
     2
272
     2
274
     1
284
     4
285
     4
340
CC
371
    -1
372
    -1
  0
DIMSTYLE
105
D3
330
A
100
AcDbSymbolTableRecord
100
AcDbDimStyleTableRecord
  2
Default - mm [in] (ANSI)
 70
     0
  4
 in
 41
0.0984251946210861
 42
0.063
 43
0.25
 44
0.125
 45
0.00000001
 46
0.3937007874015748
 73
     0
 78
     4
 79
     1
140
0.1200000047683716
143
0.03937
144
25.4
147
0.031496062992126
170
     1
171
     3
176
   256
177
   256
178
   256
179
     1
271
     2
272
     2
274
     3
284
     4
285
     4
286
     4
340
CC
371
    -1
372
    -1
  0
DIMSTYLE
105
D4
330
A
100
AcDbSymbolTableRecord
100
AcDbDimStyleTableRecord
  2
Default - mm [in] (ANSI)$7
 70
     0
  4
 in
 41
0.0984251946210861
 42
0.063
 43
0.25
 44
0.125
 45
0.00000001
 46
0.3937007874015748
 73
     0
 78
     4
 79
     1
140
0.1200000047683716
143
0.03937
144
25.4
147
0.031496062992126
170
     1
171
     3
176
   256
177
   256
178
   256
179
     1
271
     2
272
     2
274
     3
284
     4
285
     4
286
     4
340
CC
371
    -1
372
    -1
  0
DIMSTYLE
105
D5
102
{ACAD_REACTORS
330
1AD
330
2AC
330
3E1
330
4CA
330
5B4
330
69E
330
788
102
}
330
A
100
AcDbSymbolTableRecord
100
AcDbDimStyleTableRecord
  2
Default (ANSI)
 70
     0
 41
0.0984251946210861
 43
0.2362204724409449
 44
0.125
 45
0.00000001
 46
0.3937007874015748
 78
     4
 79
     1
140
0.1200000047683716
147
0.031496062992126
171
     1
176
   256
177
   256
178
   256
271
     2
272
     2
274
     1
284
     4
285
     4
340
CC
371
    -1
372
    -1
  0
DIMSTYLE
105
D6
330
A
100
AcDbSymbolTableRecord
100
AcDbDimStyleTableRecord
  2
Default (ANSI)$7
 70
     0
 41
0.0984251946210861
 43
0.2362204724409449
 44
0.125
 45
0.00000001
 46
0.3937007874015748
 78
     4
 79
     1
140
0.1200000047683716
147
0.031496062992126
171
     1
176
   256
177
   256
178
   256
271
     2
272
     2
274
     1
284
     4
285
     4
340
CC
371
    -1
372
    -1
  0
DIMSTYLE
105
D7
330
A
100
AcDbSymbolTableRecord
100
AcDbDimStyleTableRecord
  2
Alternate (ANSI)
 70
     0
 41
0.0979999974370003
340
55
342
D8
  0
DIMSTYLE
105
EA
330
A
100
AcDbSymbolTableRecord
100
AcDbDimStyleTableRecord
  2
Datum (ANSI)
 70
     0
 41
0.0979999974370003
340
55
342
D8
  0
DIMSTYLE
105
F9
330
A
100
AcDbSymbolTableRecord
100
AcDbDimStyleTableRecord
  2
Large (ANSI)
 70
     0
 41
0.1959999948740005
340
55
342
D8
  0
ENDTAB
  0
TABLE
  2
BLOCK_RECORD
  5
1
330
0
100
AcDbSymbolTable
 70
    13
  0
BLOCK_RECORD
  5
6C
330
1
100
AcDbSymbolTableRecord
100
AcDbBlockTableRecord
  2
*Model_Space
340
6F
  0
BLOCK_RECORD
  5
68
330
1
100
AcDbSymbolTableRecord
100
AcDbBlockTableRecord
  2
*Paper_Space
340
6B
  0
BLOCK_RECORD
  5
70
330
1
100
AcDbSymbolTableRecord
100
AcDbBlockTableRecord
  2
*Paper_Space0
340
73
  0
BLOCK_RECORD
  5
D8
330
1
100
AcDbSymbolTableRecord
100
AcDbBlockTableRecord
  2
_Closed
340
0
  0
BLOCK_RECORD
  5
DF
330
1
100
AcDbSymbolTableRecord
100
AcDbBlockTableRecord
  2
DatumFilled45
340
0
  0
BLOCK_RECORD
  5
EB
330
1
100
AcDbSymbolTableRecord
100
AcDbBlockTableRecord
  2
Filled-1
340
0
  0
BLOCK_RECORD
  5
FA
330
1
100
AcDbSymbolTableRecord
100
AcDbBlockTableRecord
  2
Borders Default Border
340
0
102
{BLKREFS
331
129
102
}
  0
BLOCK_RECORD
  5
12A
330
1
100
AcDbSymbolTableRecord
100
AcDbBlockTableRecord
  2
Title Blocks ANSI - Large
340
0
102
{BLKREFS
331
15E
102
}
  0
BLOCK_RECORD
  5
1AF
330
1
100
AcDbSymbolTableRecord
100
AcDbBlockTableRecord
  2
*D6
340
0
  0
BLOCK_RECORD
  5
2AD
330
1
100
AcDbSymbolTableRecord
100
AcDbBlockTableRecord
  2
*D7
340
0
  0
BLOCK_RECORD
  5
3E2
330
1
100
AcDbSymbolTableRecord
100
AcDbBlockTableRecord
  2
*D8
340
0
  0
BLOCK_RECORD
  5
4CB
330
1
100
AcDbSymbolTableRecord
100
AcDbBlockTableRecord
  2
*D9
340
0
  0
BLOCK_RECORD
  5
5B5
330
1
100
AcDbSymbolTableRecord
100
AcDbBlockTableRecord
  2
*D10
340
0
  0
BLOCK_RECORD
  5
69F
330
1
100
AcDbSymbolTableRecord
100
AcDbBlockTableRecord
  2
*D11
340
0
  0
BLOCK_RECORD
  5
789
330
1
100
AcDbSymbolTableRecord
100
AcDbBlockTableRecord
  2
*D12
340
0
  0
ENDTAB
  0
ENDSEC
  0
SECTION
  2
BLOCKS
  0
BLOCK
  5
6D
330
6C
100
AcDbEntity
  8
0
100
AcDbBlockBegin
  2
*Model_Space
 70
     0
 10
0.0
 20
0.0
 30
0.0
  3
*Model_Space
  1

  0
ENDBLK
  5
6E
330
6C
100
AcDbEntity
  8
0
100
AcDbBlockEnd
  0
BLOCK
  5
69
330
68
100
AcDbEntity
 67
     1
  8
0
100
AcDbBlockBegin
  2
*Paper_Space
 70
     0
 10
0.0
 20
0.0
 30
0.0
  3
*Paper_Space
  1

  0
ENDBLK
  5
6A
330
68
100
AcDbEntity
 67
     1
  8
0
100
AcDbBlockEnd
  0
BLOCK
  5
71
330
70
100
AcDbEntity
 67
     1
  8
0
100
AcDbBlockBegin
  2
*Paper_Space0
 70
     0
 10
0.0
 20
0.0
 30
0.0
  3
*Paper_Space0
  1

  0
ENDBLK
  5
72
330
70
100
AcDbEntity
 67
     1
  8
0
100
AcDbBlockEnd
  0
BLOCK
  5
DD
330
D8
100
AcDbEntity
  8
0
100
AcDbBlockBegin
  2
_Closed
 70
     0
 10
0.0
 20
0.0
 30
0.0
  3
_Closed
  1

  0
LINE
  5
D9
330
D8
100
AcDbEntity
  8
0
  6
ByBlock
 62
     0
370
    -2
100
AcDbLine
 10
-1.0
 20
0.1666666666666666
 30
0.0
 11
0.0
 21
0.0
 31
0.0
  0
LINE
  5
DA
330
D8
100
AcDbEntity
  8
0
  6
ByBlock
 62
     0
370
    -2
100
AcDbLine
 10
0.0
 20
0.0
 30
0.0
 11
-1.0
 21
-0.1666666666666666
 31
0.0
  0
LINE
  5
DB
330
D8
100
AcDbEntity
  8
0
  6
ByBlock
 62
     0
370
    -2
100
AcDbLine
 10
-1.0
 20
0.1666666666666666
 30
0.0
 11
-1.0
 21
-0.1666666666666666
 31
0.0
  0
LINE
  5
DC
330
D8
100
AcDbEntity
  8
0
  6
ByBlock
 62
     0
370
    -2
100
AcDbLine
 10
0.0
 20
0.0
 30
0.0
 11
-1.0
 21
0.0
 31
0.0
  0
ENDBLK
  5
DE
330
D8
100
AcDbEntity
  8
0
100
AcDbBlockEnd
  0
BLOCK
  5
E0
330
DF
100
AcDbEntity
  8
0
100
AcDbBlockBegin
  2
DatumFilled45
 70
     0
 10
0.0
 20
0.0
 30
0.0
  3
DatumFilled45
  1

  0
POLYLINE
  5
E2
330
DF
100
AcDbEntity
  8
0
 62
     0
100
AcDb2dPolyline
 66
     1
 10
0.0
 20
0.0
 30
0.0
 70
   128
  0
VERTEX
  5
E3
330
E2
100
AcDbEntity
  8
0
 62
     0
100
AcDbVertex
100
AcDb2dVertex
 10
0.0
 20
0.9999999999999998
 30
0.0
  0
VERTEX
  5
E4
330
E2
100
AcDbEntity
  8
0
 62
     0
100
AcDbVertex
100
AcDb2dVertex
 10
0.0
 20
-0.9999999999999998
 30
0.0
  0
VERTEX
  5
E6
330
E2
100
AcDbEntity
  8
0
 62
     0
100
AcDbVertex
100
AcDb2dVertex
 10
-0.9999999999999998
 20
0.0
 30
0.0
  0
VERTEX
  5
E7
330
E2
100
AcDbEntity
  8
0
 62
     0
100
AcDbVertex
100
AcDb2dVertex
 10
0.0
 20
0.9999999999999998
 30
0.0
  0
SEQEND
  5
E5
330
E2
100
AcDbEntity
  8
0
 62
     0
  0
SOLID
  5
E9
330
DF
100
AcDbEntity
  8
0
 62
     0
100
AcDbTrace
 10
0.0
 20
0.9999999999999998
 30
0.0
 11
0.0
 21
-0.9999999999999998
 31
0.0
 12
-0.9999999999999998
 22
0.0
 32
0.0
 13
0.0
 23
0.9999999999999998
 33
0.0
  0
ENDBLK
  5
E1
330
DF
100
AcDbEntity
  8
0
100
AcDbBlockEnd
  0
BLOCK
  5
EC
330
EB
100
AcDbEntity
  8
0
100
AcDbBlockBegin
  2
Filled-1
 70
     0
 10
0.0
 20
0.0
 30
0.0
  3
Filled-1
  1

  0
LINE
  5
EE
330
EB
100
AcDbEntity
  8
0
 62
     0
100
AcDbLine
 10
-0.9999999999999998
 20
0.0
 30
0.0
 11
0.0
 21
0.0
 31
0.0
  0
POLYLINE
  5
EF
330
EB
100
AcDbEntity
  8
0
 62
     0
100
AcDb2dPolyline
 66
     1
 10
0.0
 20
0.0
 30
0.0
 70
   128
  0
VERTEX
  5
F0
330
EF
100
AcDbEntity
  8
0
 62
     0
100
AcDbVertex
100
AcDb2dVertex
 10
-0.9999999999999998
 20
-0.0994897959183674
 30
0.0
  0
VERTEX
  5
F1
330
EF
100
AcDbEntity
  8
0
 62
     0
100
AcDbVertex
100
AcDb2dVertex
 10
0.0
 20
0.0
 30
0.0
  0
VERTEX
  5
F3
330
EF
100
AcDbEntity
  8
0
 62
     0
100
AcDbVertex
100
AcDb2dVertex
 10
-0.9999999999999998
 20
0.0994897959183674
 30
0.0
  0
VERTEX
  5
F4
330
EF
100
AcDbEntity
  8
0
 62
     0
100
AcDbVertex
100
AcDb2dVertex
 10
-0.9999999999999998
 20
-0.0994897959183674
 30
0.0
  0
SEQEND
  5
F2
330
EF
100
AcDbEntity
  8
0
 62
     0
  0
SOLID
  5
F5
330
EB
100
AcDbEntity
  8
0
 62
     0
100
AcDbTrace
 10
-0.9999999999999998
 20
-0.0994897959183674
 30
0.0
 11
0.0
 21
0.0
 31
0.0
 12
-0.9999999999999998
 22
0.0994897959183674
 32
0.0
 13
-0.9999999999999998
 23
-0.0994897959183674
 33
0.0
  0
LINE
  5
F6
330
EB
100
AcDbEntity
  8
0
 62
     0
100
AcDbLine
 10
-0.9999999999999998
 20
-0.0994897959183674
 30
0.0
 11
0.0
 21
0.0
 31
0.0
  0
LINE
  5
F7
330
EB
100
AcDbEntity
  8
0
 62
     0
100
AcDbLine
 10
0.0
 20
0.0
 30
0.0
 11
-0.9999999999999998
 21
0.0994897959183674
 31
0.0
  0
LINE
  5
F8
330
EB
100
AcDbEntity
  8
0
 62
     0
100
AcDbLine
 10
-0.9999999999999998
 20
0.0994897959183674
 30
0.0
 11
-0.9999999999999998
 21
-0.0994897959183674
 31
0.0
  0
ENDBLK
  5
ED
330
EB
100
AcDbEntity
  8
0
100
AcDbBlockEnd
  0
BLOCK
  5
FB
330
FA
100
AcDbEntity
  8
0
100
AcDbBlockBegin
  2
Borders Default Border
 70
     0
 10
0.0
 20
0.0
 30
0.0
  3
Borders Default Border
  1

  0
POLYLINE
  5
FD
330
FA
100
AcDbEntity
  8
Border (ANSI)
100
AcDb2dPolyline
 66
     1
 10
0.0
 20
0.0
 30
0.0
 70
   128
  0
VERTEX
  5
FE
330
FD
100
AcDbEntity
  8
Border (ANSI)
100
AcDbVertex
100
AcDb2dVertex
 10
0.380000002740875
 20
0.380000002740875
 30
0.0
  0
VERTEX
  5
FF
330
FD
100
AcDbEntity
  8
Border (ANSI)
100
AcDbVertex
100
AcDb2dVertex
 10
0.380000002740875
 20
8.119999893068326
 30
0.0
  0
VERTEX
  5
101
330
FD
100
AcDbEntity
  8
Border (ANSI)
100
AcDbVertex
100
AcDb2dVertex
 10
10.62000004325326
 20
8.119999893068326
 30
0.0
  0
VERTEX
  5
102
330
FD
100
AcDbEntity
  8
Border (ANSI)
100
AcDbVertex
100
AcDb2dVertex
 10
10.62000004325326
 20
0.380000002740875
 30
0.0
  0
VERTEX
  5
103
330
FD
100
AcDbEntity
  8
Border (ANSI)
100
AcDbVertex
100
AcDb2dVertex
 10
0.380000002740875
 20
0.380000002740875
 30
0.0
  0
SEQEND
  5
100
330
FD
100
AcDbEntity
  8
Border (ANSI)
  0
POLYLINE
  5
104
330
FA
100
AcDbEntity
  8
Border (ANSI)
100
AcDb2dPolyline
 66
     1
 10
0.0
 20
0.0
 30
0.0
 70
   128
  0
VERTEX
  5
105
330
104
100
AcDbEntity
  8
Border (ANSI)
100
AcDbVertex
100
AcDb2dVertex
 10
5.500000105129451
 20
0.1299999947623005
 30
0.0
  0
VERTEX
  5
106
330
104
100
AcDbEntity
  8
Border (ANSI)
100
AcDbVertex
100
AcDb2dVertex
 10
5.500000105129451
 20
0.380000002740875
 30
0.0
  0
VERTEX
  5
108
330
104
100
AcDbEntity
  8
Border (ANSI)
100
AcDbVertex
100
AcDb2dVertex
 10
5.413397466103861
 20
0.2300000096869281
 30
0.0
  0
VERTEX
  5
109
330
104
100
AcDbEntity
  8
Border (ANSI)
100
AcDbVertex
100
AcDb2dVertex
 10
5.586602368692711
 20
0.2300000096869281
 30
0.0
  0
VERTEX
  5
10A
330
104
100
AcDbEntity
  8
Border (ANSI)
100
AcDbVertex
100
AcDb2dVertex
 10
5.500000105129451
 20
0.380000002740875
 30
0.0
  0
SEQEND
  5
107
330
104
100
AcDbEntity
  8
Border (ANSI)
  0
POLYLINE
  5
10B
330
FA
100
AcDbEntity
  8
Border (ANSI)
100
AcDb2dPolyline
 66
     1
 10
0.0
 20
0.0
 30
0.0
 70
   128
  0
VERTEX
  5
10C
330
10B
100
AcDbEntity
  8
Border (ANSI)
100
AcDbVertex
100
AcDb2dVertex
 10
5.500000105129451
 20
8.369999983179287
 30
0.0
  0
VERTEX
  5
10D
330
10B
100
AcDbEntity
  8
Border (ANSI)
100
AcDbVertex
100
AcDb2dVertex
 10
5.500000105129451
 20
8.119999893068326
 30
0.0
  0
VERTEX
  5
10F
330
10B
100
AcDbEntity
  8
Border (ANSI)
100
AcDbVertex
100
AcDb2dVertex
 10
5.413397466103861
 20
8.270000097319835
 30
0.0
  0
VERTEX
  5
110
330
10B
100
AcDbEntity
  8
Border (ANSI)
100
AcDbVertex
100
AcDb2dVertex
 10
5.586602368692711
 20
8.270000097319835
 30
0.0
  0
VERTEX
  5
111
330
10B
100
AcDbEntity
  8
Border (ANSI)
100
AcDbVertex
100
AcDb2dVertex
 10
5.500000105129451
 20
8.119999893068326
 30
0.0
  0
SEQEND
  5
10E
330
10B
100
AcDbEntity
  8
Border (ANSI)
  0
POLYLINE
  5
112
330
FA
100
AcDbEntity
  8
Border (ANSI)
100
AcDb2dPolyline
 66
     1
 10
0.0
 20
0.0
 30
0.0
 70
   128
  0
VERTEX
  5
113
330
112
100
AcDbEntity
  8
Border (ANSI)
100
AcDbVertex
100
AcDb2dVertex
 10
0.1299999947623005
 20
4.250000030036986
 30
0.0
  0
VERTEX
  5
114
330
112
100
AcDbEntity
  8
Border (ANSI)
100
AcDbVertex
100
AcDb2dVertex
 10
0.380000002740875
 20
4.250000030036986
 30
0.0
  0
VERTEX
  5
116
330
112
100
AcDbEntity
  8
Border (ANSI)
100
AcDbVertex
100
AcDb2dVertex
 10
0.2300000096869281
 20
4.336602669062576
 30
0.0
  0
VERTEX
  5
117
330
112
100
AcDbEntity
  8
Border (ANSI)
100
AcDbVertex
100
AcDb2dVertex
 10
0.2300000096869281
 20
4.163397391011394
 30
0.0
  0
VERTEX
  5
118
330
112
100
AcDbEntity
  8
Border (ANSI)
100
AcDbVertex
100
AcDb2dVertex
 10
0.380000002740875
 20
4.250000030036986
 30
0.0
  0
SEQEND
  5
115
330
112
100
AcDbEntity
  8
Border (ANSI)
  0
POLYLINE
  5
119
330
FA
100
AcDbEntity
  8
Border (ANSI)
100
AcDb2dPolyline
 66
     1
 10
0.0
 20
0.0
 30
0.0
 70
   128
  0
VERTEX
  5
11A
330
119
100
AcDbEntity
  8
Border (ANSI)
100
AcDbVertex
100
AcDb2dVertex
 10
10.87000013336422
 20
4.250000030036986
 30
0.0
  0
VERTEX
  5
11B
330
119
100
AcDbEntity
  8
Border (ANSI)
100
AcDbVertex
100
AcDb2dVertex
 10
10.62000004325326
 20
4.250000030036986
 30
0.0
  0
VERTEX
  5
11D
330
119
100
AcDbEntity
  8
Border (ANSI)
100
AcDbVertex
100
AcDb2dVertex
 10
10.77000024750476
 20
4.336602669062576
 30
0.0
  0
VERTEX
  5
11E
330
119
100
AcDbEntity
  8
Border (ANSI)
100
AcDbVertex
100
AcDb2dVertex
 10
10.77000024750476
 20
4.163397391011394
 30
0.0
  0
VERTEX
  5
11F
330
119
100
AcDbEntity
  8
Border (ANSI)
100
AcDbVertex
100
AcDb2dVertex
 10
10.62000004325326
 20
4.250000030036986
 30
0.0
  0
SEQEND
  5
11C
330
119
100
AcDbEntity
  8
Border (ANSI)
  0
MTEXT
  5
120
330
FA
100
AcDbEntity
  8
Border (ANSI)
100
AcDbMText
 10
8.22292773590378
 20
8.16
 30
0.0
 40
0.1200000014830762
 41
0.0
 71
     7
 72
     1
  1
1
  7
Note Text (ANSI)
 73
     1
 44
1.0
1001
ACAD
1000
MTEXTBEGIN
1070
    73
1070
     1
1070
    44
1040
1.0
1070
    74
1070
     0
1000
MTEXTEND
  0
MTEXT
  5
122
330
FA
100
AcDbEntity
  8
Border (ANSI)
100
AcDbMText
 10
8.22292773590378
 20
0.2199999985169238
 30
0.0
 40
0.1200000014830762
 41
0.0
 71
     7
 72
     1
  1
1
  7
Note Text (ANSI)
 73
     1
 44
1.0
1001
ACAD
1000
MTEXTBEGIN
1070
    73
1070
     1
1070
    44
1040
1.0
1070
    74
1070
     0
1000
MTEXTEND
  0
MTEXT
  5
123
330
FA
100
AcDbEntity
  8
Border (ANSI)
100
AcDbMText
 10
2.713615711949912
 20
8.16
 30
0.0
 40
0.1200000014830762
 41
0.0
 71
     7
 72
     1
  1
2
  7
Note Text (ANSI)
 73
     1
 44
1.0
1001
ACAD
1000
MTEXTBEGIN
1070
    73
1070
     1
1070
    44
1040
1.0
1070
    74
1070
     0
1000
MTEXTEND
  0
MTEXT
  5
124
330
FA
100
AcDbEntity
  8
Border (ANSI)
100
AcDbMText
 10
2.713615711949912
 20
0.2199999985169238
 30
0.0
 40
0.1200000014830762
 41
0.0
 71
     7
 72
     1
  1
2
  7
Note Text (ANSI)
 73
     1
 44
1.0
1001
ACAD
1000
MTEXTBEGIN
1070
    73
1070
     1
1070
    44
1040
1.0
1070
    74
1070
     0
1000
MTEXTEND
  0
MTEXT
  5
125
330
FA
100
AcDbEntity
  8
Border (ANSI)
100
AcDbMText
 10
0.2289564708700565
 20
2.064999999258461
 30
0.0
 40
0.1200000014830762
 41
0.0
 71
     7
 72
     1
  1
A
  7
Note Text (ANSI)
 73
     1
 44
1.0
1001
ACAD
1000
MTEXTBEGIN
1070
    73
1070
     1
1070
    44
1040
1.0
1070
    74
1070
     0
1000
MTEXTEND
  0
MTEXT
  5
126
330
FA
100
AcDbEntity
  8
Border (ANSI)
100
AcDbMText
 10
10.66895647235313
 20
2.064999999258461
 30
0.0
 40
0.1200000014830762
 41
0.0
 71
     7
 72
     1
  1
A
  7
Note Text (ANSI)
 73
     1
 44
1.0
1001
ACAD
1000
MTEXTBEGIN
1070
    73
1070
     1
1070
    44
1040
1.0
1070
    74
1070
     0
1000
MTEXTEND
  0
MTEXT
  5
127
330
FA
100
AcDbEntity
  8
Border (ANSI)
100
AcDbMText
 10
0.2433776643499004
 20
6.314999999258461
 30
0.0
 40
0.1200000014830762
 41
0.0
 71
     7
 72
     1
  1
B
  7
Note Text (ANSI)
 73
     1
 44
1.0
1001
ACAD
1000
MTEXTBEGIN
1070
    73
1070
     1
1070
    44
1040
1.0
1070
    74
1070
     0
1000
MTEXTEND
  0
MTEXT
  5
128
330
FA
100
AcDbEntity
  8
Border (ANSI)
100
AcDbMText
 10
10.68337766583297
 20
6.314999999258461
 30
0.0
 40
0.1200000014830762
 41
0.0
 71
     7
 72
     1
  1
B
  7
Note Text (ANSI)
 73
     1
 44
1.0
1001
ACAD
1000
MTEXTBEGIN
1070
    73
1070
     1
1070
    44
1040
1.0
1070
    74
1070
     0
1000
MTEXTEND
  0
ENDBLK
  5
FC
330
FA
100
AcDbEntity
  8
0
100
AcDbBlockEnd
  0
BLOCK
  5
12B
330
12A
100
AcDbEntity
  8
0
100
AcDbBlockBegin
  2
Title Blocks ANSI - Large
 70
     2
 10
0.0
 20
0.0
 30
0.0
  3
Title Blocks ANSI - Large
  1

  0
LINE
  5
12D
330
12A
100
AcDbEntity
  8
Title (ANSI)
100
AcDbLine
 10
5.000010039370077
 20
7.44998412571846
 30
0.0
 11
5.000010039370077
 21
4.949984125718458
 31
0.0
  0
LINE
  5
12E
330
12A
100
AcDbEntity
  8
Title (ANSI)
100
AcDbLine
 10
5.000010039370077
 20
4.949984125718458
 30
0.0
 11
12.75001003937007
 21
4.94998412571846
 31
0.0
  0
LINE
  5
12F
330
12A
100
AcDbEntity
  8
Title (ANSI)
100
AcDbLine
 10
12.75001003937007
 20
4.94998412571846
 30
0.0
 11
12.75001003937007
 21
7.449984125718461
 31
0.0
  0
LINE
  5
130
330
12A
100
AcDbEntity
  8
Title (ANSI)
100
AcDbLine
 10
12.75001003937007
 20
7.449984125718461
 30
0.0
 11
5.000010039370079
 21
7.44998412571846
 31
0.0
  0
LINE
  5
131
330
12A
100
AcDbEntity
  8
Title (ANSI)
370
    35
100
AcDbLine
 10
7.75001003937008
 20
4.949984125718458
 30
0.0
 11
7.750010039370073
 21
7.44998412571846
 31
0.0
  0
LINE
  5
132
330
12A
100
AcDbEntity
  8
Title (ANSI)
370
    35
100
AcDbLine
 10
7.750010039370076
 20
6.829987900521604
 30
0.0
 11
12.75001003937007
 21
6.829987900521607
 31
0.0
  0
LINE
  5
133
330
12A
100
AcDbEntity
  8
Title (ANSI)
370
    35
100
AcDbLine
 10
12.75001003937007
 20
5.699985631623981
 30
0.0
 11
7.750010039370076
 21
5.699985631623971
 31
0.0
  0
LINE
  5
134
330
12A
100
AcDbEntity
  8
Title (ANSI)
370
    35
100
AcDbLine
 10
12.75001003937007
 20
5.199984125718472
 30
0.0
 11
7.750010039370076
 21
5.199984125718462
 31
0.0
  0
LINE
  5
135
330
12A
100
AcDbEntity
  8
Title (ANSI)
370
    35
100
AcDbLine
 10
7.750010039370076
 20
5.199984125718462
 30
0.0
 11
5.000010039370077
 21
5.199984125718454
 31
0.0
  0
LINE
  5
136
330
12A
100
AcDbEntity
  8
Title (ANSI)
370
    35
100
AcDbLine
 10
8.250010039370076
 20
5.199984125718462
 30
0.0
 11
8.250010039370076
 21
5.699985631623972
 31
0.0
  0
LINE
  5
137
330
12A
100
AcDbEntity
  8
Title (ANSI)
370
    35
100
AcDbLine
 10
8.870017809842519
 20
5.199984125718463
 30
0.0
 11
8.870017809842519
 21
4.949984125718458
 31
0.0
  0
LINE
  5
138
330
12A
100
AcDbEntity
  8
Title (ANSI)
370
    35
100
AcDbLine
 10
9.250010039370078
 20
5.199984125718464
 30
0.0
 11
9.250010039370078
 21
5.699985631623975
 31
0.0
  0
LINE
  5
139
330
12A
100
AcDbEntity
  8
Title (ANSI)
370
    35
100
AcDbLine
 10
10.75001003937008
 20
5.199984125718469
 30
0.0
 11
10.75001003937008
 21
4.949984125718458
 31
0.0
  0
LINE
  5
13A
330
12A
100
AcDbEntity
  8
Title (ANSI)
370
    35
100
AcDbLine
 10
12.25001003937008
 20
5.199984125718471
 30
0.0
 11
12.25001003937008
 21
5.699985631623981
 31
0.0
  0
LINE
  5
13B
330
12A
100
AcDbEntity
  8
Title (ANSI)
370
    35
100
AcDbLine
 10
6.750013553149606
 20
4.949984125718458
 30
0.0
 11
6.750013553149606
 21
7.44998412571846
 31
0.0
  0
LINE
  5
13C
330
12A
100
AcDbEntity
  8
Title (ANSI)
370
    35
100
AcDbLine
 10
5.000010039370077
 20
5.574984125718456
 30
0.0
 11
7.750010039370076
 21
5.574984125718462
 31
0.0
  0
LINE
  5
13D
330
12A
100
AcDbEntity
  8
Title (ANSI)
370
    35
100
AcDbLine
 10
5.000010039370077
 20
5.949984125718456
 30
0.0
 11
7.750010039370076
 21
5.949984125718462
 31
0.0
  0
LINE
  5
13E
330
12A
100
AcDbEntity
  8
Title (ANSI)
370
    35
100
AcDbLine
 10
5.000010039370077
 20
6.324984125718456
 30
0.0
 11
7.750010039370076
 21
6.324984125718462
 31
0.0
  0
LINE
  5
13F
330
12A
100
AcDbEntity
  8
Title (ANSI)
370
    35
100
AcDbLine
 10
5.000010039370077
 20
6.699984125718456
 30
0.0
 11
7.750010039370075
 21
6.699984125718462
 31
0.0
  0
LINE
  5
140
330
12A
100
AcDbEntity
  8
Title (ANSI)
370
    35
100
AcDbLine
 10
5.000010039370077
 20
7.074984125718456
 30
0.0
 11
7.750010039370075
 21
7.074984125718462
 31
0.0
  0
MTEXT
  5
141
330
12A
100
AcDbEntity
  8
Title (ANSI)
100
AcDbMText
 10
10.78001003937008
 20
4.97998412571846
 30
0.0
 40
0.1200000014830762
 41
0.0
 71
     7
 72
     1
  1
\fTahoma|b0|i0;\H0.1000;SHEET\fTahoma|b0|i0;\H0.1200; 1  \fTahoma|b0|i0;\H0.1000;OF\fTahoma|b0|i0;\H0.1200; 1 
  7
Note Text (ANSI)
 73
     1
 44
1.0
1001
ACAD
1000
MTEXTBEGIN
1070
    73
1070
     1
1070
    44
1040
1.0
1070
    74
1070
     0
1000
MTEXTEND
  0
TEXT
  5
143
330
12A
100
AcDbEntity
  8
Title (ANSI)
100
AcDbText
 10
5.030010039370075
 20
7.319984122527029
 30
0.0
 40
0.1000000031914298
  1
DRAWN
  7
Text Style38
 11
5.030010039370075
 21
7.419984125718459
 31
0.0
100
AcDbText
 73
     3
  0
TEXT
  5
145
330
12A
100
AcDbEntity
  8
Title (ANSI)
100
AcDbText
 10
5.030010039370077
 20
6.944984122527026
 30
0.0
 40
0.1000000031914298
  1
CHECKED
  7
Text Style38
 11
5.030010039370077
 21
7.044984125718456
 31
0.0
100
AcDbText
 73
     3
  0
TEXT
  5
146
330
12A
100
AcDbEntity
  8
Title (ANSI)
100
AcDbText
 10
5.030010039370077
 20
6.569984122527026
 30
0.0
 40
0.1000000031914298
  1
QA
  7
Text Style38
 11
5.030010039370077
 21
6.669984125718456
 31
0.0
100
AcDbText
 73
     3
  0
TEXT
  5
147
330
12A
100
AcDbEntity
  8
Title (ANSI)
100
AcDbText
 10
5.030010039370077
 20
6.194984122527026
 30
0.0
 40
0.1000000031914298
  1
MFG
  7
Text Style38
 11
5.030010039370077
 21
6.294984125718456
 31
0.0
100
AcDbText
 73
     3
  0
TEXT
  5
148
330
12A
100
AcDbEntity
  8
Title (ANSI)
100
AcDbText
 10
5.030010039370077
 20
5.819984122527026
 30
0.0
 40
0.1000000031914298
  1
APPROVED
  7
Text Style38
 11
5.030010039370077
 21
5.919984125718456
 31
0.0
100
AcDbText
 73
     3
  0
TEXT
  5
149
330
12A
100
AcDbEntity
  8
Title (ANSI)
100
AcDbText
 10
9.280010039370075
 20
5.569985628432527
 30
0.0
 40
0.1000000031914298
  1
DWG NO
  7
Text Style38
 11
9.280010039370075
 21
5.669985631623957
 31
0.0
100
AcDbText
 73
     3
  0
TEXT
  5
14A
330
12A
100
AcDbEntity
  8
Title (ANSI)
100
AcDbText
 10
7.780010039370075
 20
6.699987897330176
 30
0.0
 40
0.1000000031914298
  1
TITLE
  7
Text Style38
 11
7.780010039370075
 21
6.799987900521606
 31
0.0
100
AcDbText
 73
     3
  0
TEXT
  5
14B
330
12A
100
AcDbEntity
  8
Title (ANSI)
100
AcDbText
 10
7.859009363278467
 20
5.56998562843254
 30
0.0
 40
0.1000000031914298
  1
SIZE
  7
Text Style38
 72
     1
 11
8.000010039370076
 21
5.66998563162397
 31
0.0
100
AcDbText
 73
     3
  0
TEXT
  5
14C
330
12A
100
AcDbEntity
  8
Title (ANSI)
100
AcDbText
 10
7.780010039370076
 20
5.069984122527031
 30
0.0
 40
0.1000000031914298
  1
SCALE
  7
Text Style38
 11
7.780010039370076
 21
5.169984125718461
 31
0.0
100
AcDbText
 73
     3
  0
TEXT
  5
14D
330
12A
100
AcDbEntity
  8
Title (ANSI)
100
AcDbText
 10
12.37744455527044
 20
5.569985628432542
 30
0.0
 40
0.1000000031914298
  1
REV
  7
Text Style38
 72
     1
 11
12.50001003937008
 21
5.669985631623972
 31
0.0
100
AcDbText
 73
     3
  0
ATTDEF
  5
14F
102
{ACAD_XDICTIONARY
360
885
102
}
330
12A
100
AcDbEntity
  8
Title (ANSI)
100
AcDbText
 10
5.030010039370077
 20
5.640494534626629
 30
0.0
 40
0.1249999981226883
  1

  7
Text Style39
 11
5.030010039370077
 21
5.604984125718456
 31
0.0
100
AcDbAttributeDefinition
  3
ENG APPROVED BY
  2
ENG_APPROVED_BY
 70
     0
 74
     1
  0
ATTDEF
  5
151
102
{ACAD_XDICTIONARY
360
888
102
}
330
12A
100
AcDbEntity
  8
Title (ANSI)
100
AcDbText
 10
5.030010039370077
 20
6.015494534626629
 30
0.0
 40
0.1249999981226883
  1

  7
Text Style39
 11
5.030010039370077
 21
5.979984125718456
 31
0.0
100
AcDbAttributeDefinition
  3
MFG APPROVED BY
  2
MFG_APPROVED_BY
 70
     0
 74
     1
  0
ATTDEF
  5
152
102
{ACAD_XDICTIONARY
360
88B
102
}
330
12A
100
AcDbEntity
  8
Title (ANSI)
100
AcDbText
 10
5.007175922929826
 20
7.215824732740112
 30
0.0
 40
0.1249999981226883
  1
rnorthrop
  7
Text Style39
100
AcDbAttributeDefinition
  3
AUTHOR
  2
AUTHOR_001
 70
     0
  0
ATTDEF
  5
153
102
{ACAD_XDICTIONARY
360
88E
102
}
330
12A
100
AcDbEntity
  8
Title (ANSI)
100
AcDbText
 10
5.030010039370077
 20
6.765494534626629
 30
0.0
 40
0.1249999981226883
  1

  7
Text Style39
 11
5.030010039370077
 21
6.729984125718456
 31
0.0
100
AcDbAttributeDefinition
  3
CHECKED BY
  2
CHECKED_BY
 70
     0
 74
     1
  0
ATTDEF
  5
154
102
{ACAD_XDICTIONARY
360
891
102
}
330
12A
100
AcDbEntity
  8
Title (ANSI)
100
AcDbText
 10
6.768764392844482
 20
7.201049716219952
 30
0.0
 40
0.1249999981226883
  1
9/30/2011
  7
Text Style39
100
AcDbAttributeDefinition
  3
CREATION DATE
  2
CREATION_DATE_001
 70
     0
  0
ATTDEF
  5
155
102
{ACAD_XDICTIONARY
360
894
102
}
330
12A
100
AcDbEntity
  8
Title (ANSI)
100
AcDbText
 10
6.780013553149606
 20
6.765494534626631
 30
0.0
 40
0.1249999981226883
  1

  7
Text Style39
 11
6.780013553149606
 21
6.729984125718458
 31
0.0
100
AcDbAttributeDefinition
  3
CHECKED DATE
  2
CHECKED_DATE
 70
     0
 74
     1
  0
ATTDEF
  5
156
102
{ACAD_XDICTIONARY
360
897
102
}
330
12A
100
AcDbEntity
  8
Title (ANSI)
100
AcDbText
 10
6.780013553149606
 20
6.015494534626633
 30
0.0
 40
0.1249999981226883
  1

  7
Text Style39
 11
6.780013553149606
 21
5.97998412571846
 31
0.0
100
AcDbAttributeDefinition
  3
MFG APPROVED DATE
  2
MFG_APPROVED_DATE
 70
     0
 74
     1
  0
ATTDEF
  5
157
102
{ACAD_XDICTIONARY
360
89A
102
}
330
12A
100
AcDbEntity
  8
Title (ANSI)
100
AcDbText
 10
6.780013553149606
 20
5.640494534626633
 30
0.0
 40
0.1249999981226883
  1

  7
Text Style39
 11
6.780013553149606
 21
5.60498412571846
 31
0.0
100
AcDbAttributeDefinition
  3
ENG APPROVAL DATE
  2
ENG_APPROVAL_DATE
 70
     0
 74
     1
  0
ATTDEF
  5
159
102
{ACAD_XDICTIONARY
360
89D
102
}
330
12A
100
AcDbEntity
  8
Title (ANSI)
100
AcDbText
 10
9.247854230856608
 20
5.297479087391068
 30
0.0
 40
0.1799999963580154
  1
UCHOLAfrontPanel
  7
Text Style30
100
AcDbAttributeDefinition
  3
PART NUMBER
  2
PART_NUMBER_001
 70
     0
  0
ATTDEF
  5
15A
102
{ACAD_XDICTIONARY
360
8A0
102
}
330
12A
100
AcDbEntity
  8
Title (ANSI)
100
AcDbText
 10
7.780010039370075
 20
6.132745946448077
 30
0.0
 40
0.1799999963580154
  1

  7
Text Style30
 11
7.780010039370075
 21
6.222745944627084
 31
0.0
100
AcDbAttributeDefinition
  3
TITLE
  2
TITLE
 70
     0
 74
     2
  0
ATTDEF
  5
15B
102
{ACAD_XDICTIONARY
360
8A3
102
}
330
12A
100
AcDbEntity
  8
Title (ANSI)
100
AcDbText
 10
7.925785729736811
 20
5.284984880492205
 30
0.0
 40
0.1799999963580154
  1
A
  7
Text Style30
100
AcDbAttributeDefinition
  3
Sheet Size
  2
Sheet_Size_001
 70
     0
  0
ATTDEF
  5
15C
102
{ACAD_XDICTIONARY
360
8A6
102
}
330
12A
100
AcDbEntity
  8
Title (ANSI)
100
AcDbText
 10
10.25001003937007
 20
7.077486014058688
 30
0.0
 40
0.1249999981226883
  1

  7
Text Style39
 72
     1
 11
10.25001003937007
 21
7.139986013120032
 31
0.0
100
AcDbAttributeDefinition
  3
COMPANY
  2
COMPANY
 70
     0
 74
     2
  0
ATTDEF
  5
15D
102
{ACAD_XDICTIONARY
360
8A9
102
}
330
12A
100
AcDbEntity
  8
Title (ANSI)
100
AcDbText
 10
12.50001003937008
 20
5.312484879609879
 30
0.0
 40
0.1249999981226883
  1

  7
Text Style39
 72
     1
 11
12.50001003937008
 21
5.374984878671223
 31
0.0
100
AcDbAttributeDefinition
  3
REVISION NUMBER
  2
REVISION_NUMBER
 70
     0
 74
     2
  0
ENDBLK
  5
12C
330
12A
100
AcDbEntity
  8
0
100
AcDbBlockEnd
  0
BLOCK
  5
1B0
330
1AF
100
AcDbEntity
  8
0
100
AcDbBlockBegin
  2
*D6
 70
     1
 10
0.0
 20
0.0
 30
0.0
  3
*D6
  1

  0
LINE
  5
2A1
330
1AF
100
AcDbEntity
  8
Dimension (ANSI)
100
AcDbLine
 10
2.656155177224154
 20
4.666853417905356
 30
0.0
 11
1.56178142415205
 21
4.666853417905356
 31
0.0
  0
LINE
  5
2A2
330
1AF
100
AcDbEntity
  8
Dimension (ANSI)
100
AcDbLine
 10
2.688155177224154
 20
4.519853417905355
 30
0.0
 11
1.56178142415205
 21
4.519853417905355
 31
0.0
  0
LINE
  5
2A3
330
1AF
100
AcDbEntity
  8
Dimension (ANSI)
100
AcDbLine
 10
1.68678142415205
 20
4.421428223284268
 30
0.0
 11
1.68678142415205
 21
4.323003028663182
 31
0.0
  0
LINE
  5
2A4
330
1AF
100
AcDbEntity
  8
Dimension (ANSI)
100
AcDbLine
 10
1.68678142415205
 20
4.765278612526443
 30
0.0
 11
1.68678142415205
 21
4.953559349557633
 31
0.0
  0
LINE
  5
2A5
330
1AF
100
AcDbEntity
  8
Dimension (ANSI)
100
AcDbLine
 10
1.68678142415205
 20
4.953559349557633
 30
0.0
 11
1.785206618773137
 21
4.953559349557633
 31
0.0
  0
SOLID
  5
2A6
330
1AF
100
AcDbEntity
  8
Dimension (ANSI)
100
AcDbTrace
 10
1.670377225048535
 20
4.421428223284268
 30
0.0
 11
1.703185623255564
 21
4.421428223284268
 31
0.0
 12
1.68678142415205
 22
4.519853417905355
 32
0.0
 13
1.68678142415205
 23
4.519853417905355
 33
0.0
  0
SOLID
  5
2A7
330
1AF
100
AcDbEntity
  8
Dimension (ANSI)
100
AcDbTrace
 10
1.670377225048535
 20
4.765278612526443
 30
0.0
 11
1.703185623255564
 21
4.765278612526443
 31
0.0
 12
1.68678142415205
 22
4.666853417905356
 32
0.0
 13
1.68678142415205
 23
4.666853417905356
 33
0.0
  0
MTEXT
  5
2A8
330
1AF
100
AcDbEntity
  8
Dimension (ANSI)
100
AcDbMText
 10
1.816702681765261
 20
5.016057672658108
 30
0.0
 40
0.1200000047683716
 41
0.0
 71
     1
 72
     1
  1
\A1; 3.74
  7
Note Text (ANSI)
 73
     1
 44
1.0
1001
ACAD
1000
MTEXTBEGIN
1070
    73
1070
     1
1070
    44
1040
1.0
1070
    74
1070
     0
1000
MTEXTEND
  0
POINT
  5
2A9
330
1AF
100
AcDbEntity
  8
Defpoints
 62
     0
100
AcDbPoint
 10
2.718655177224154
 20
4.666853417905356
 30
0.0
  0
POINT
  5
2AA
330
1AF
100
AcDbEntity
  8
Defpoints
 62
     0
100
AcDbPoint
 10
2.750655177224154
 20
4.519853417905355
 30
0.0
  0
POINT
  5
2AB
330
1AF
100
AcDbEntity
  8
Defpoints
 62
     0
100
AcDbPoint
 10
1.68678142415205
 20
4.519853417905355
 30
0.0
  0
ENDBLK
  5
1B1
330
1AF
100
AcDbEntity
  8
0
100
AcDbBlockEnd
  0
BLOCK
  5
2AE
330
2AD
100
AcDbEntity
  8
0
100
AcDbBlockBegin
  2
*D7
 70
     1
 10
0.0
 20
0.0
 30
0.0
  3
*D7
  1

  0
LINE
  5
38C
330
2AD
100
AcDbEntity
  8
Dimension (ANSI)
100
AcDbLine
 10
2.656155177224154
 20
4.666853417905356
 30
0.0
 11
1.570732868055458
 21
4.666853417905356
 31
0.0
  0
LINE
  5
38D
330
2AD
100
AcDbEntity
  8
Dimension (ANSI)
100
AcDbLine
 10
2.656155177224154
 20
6.056853417905355
 30
0.0
 11
1.570732868055458
 21
6.056853417905356
 31
0.0
  0
LINE
  5
38E
330
2AD
100
AcDbEntity
  8
Dimension (ANSI)
100
AcDbLine
 10
1.695732868055458
 20
4.765278612526443
 30
0.0
 11
1.695732868055458
 21
5.268859031812755
 31
0.0
  0
LINE
  5
38F
330
2AD
100
AcDbEntity
  8
Dimension (ANSI)
100
AcDbLine
 10
1.695732868055458
 20
5.958428223284269
 30
0.0
 11
1.695732868055458
 21
5.456847803997956
 31
0.0
  0
SOLID
  5
390
330
2AD
100
AcDbEntity
  8
Dimension (ANSI)
100
AcDbTrace
 10
1.679328668951944
 20
4.765278612526443
 30
0.0
 11
1.712137067158973
 21
4.765278612526443
 31
0.0
 12
1.695732868055458
 22
4.666853417905356
 32
0.0
 13
1.695732868055458
 23
4.666853417905356
 33
0.0
  0
SOLID
  5
391
330
2AD
100
AcDbEntity
  8
Dimension (ANSI)
100
AcDbTrace
 10
1.679328668951945
 20
5.958428223284269
 30
0.0
 11
1.712137067158973
 21
5.958428223284269
 31
0.0
 12
1.695732868055458
 22
6.056853417905356
 32
0.0
 13
1.695732868055458
 23
6.056853417905356
 33
0.0
  0
MTEXT
  5
392
330
2AD
100
AcDbEntity
  8
Dimension (ANSI)
100
AcDbMText
 10
1.468103579084096
 20
5.42535174100583
 30
0.0
 40
0.1200000047683716
 41
0.0
 71
     1
 72
     1
  1
\A1; 35.30
  7
Note Text (ANSI)
 73
     1
 44
1.0
1001
ACAD
1000
MTEXTBEGIN
1070
    73
1070
     1
1070
    44
1040
1.0
1070
    74
1070
     0
1000
MTEXTEND
  0
POINT
  5
393
330
2AD
100
AcDbEntity
  8
Defpoints
 62
     0
100
AcDbPoint
 10
2.718655177224154
 20
4.666853417905356
 30
0.0
  0
POINT
  5
394
330
2AD
100
AcDbEntity
  8
Defpoints
 62
     0
100
AcDbPoint
 10
2.718655177224154
 20
6.056853417905355
 30
0.0
  0
POINT
  5
395
330
2AD
100
AcDbEntity
  8
Defpoints
 62
     0
100
AcDbPoint
 10
1.695732868055458
 20
6.056853417905356
 30
0.0
  0
ENDBLK
  5
2AF
330
2AD
100
AcDbEntity
  8
0
100
AcDbBlockEnd
  0
BLOCK
  5
3E3
330
3E2
100
AcDbEntity
  8
0
100
AcDbBlockBegin
  2
*D8
 70
     1
 10
0.0
 20
0.0
 30
0.0
  3
*D8
  1

  0
LINE
  5
4C0
330
3E2
100
AcDbEntity
  8
Dimension (ANSI)
100
AcDbLine
 10
3.317080371845241
 20
5.863564393363013
 30
0.0
 11
3.415505566466326
 21
5.863564393363013
 31
0.0
  0
LINE
  5
4C1
330
3E2
100
AcDbEntity
  8
Dimension (ANSI)
100
AcDbLine
 10
3.055229982603068
 20
5.863564393363013
 30
0.0
 11
2.899823632058166
 21
5.863564393363013
 31
0.0
  0
SOLID
  5
4C2
330
3E2
100
AcDbEntity
  8
Dimension (ANSI)
100
AcDbTrace
 10
3.317080371845241
 20
5.879968592466528
 30
0.0
 11
3.317080371845241
 21
5.847160194259499
 31
0.0
 12
3.218655177224154
 22
5.863564393363013
 32
0.0
 13
3.218655177224154
 23
5.863564393363013
 33
0.0
  0
SOLID
  5
4C3
330
3E2
100
AcDbEntity
  8
Dimension (ANSI)
100
AcDbTrace
 10
3.055229982603068
 20
5.879968592466528
 30
0.0
 11
3.055229982603068
 21
5.847160194259499
 31
0.0
 12
3.153655177224155
 22
5.863564393363013
 32
0.0
 13
3.153655177224155
 23
5.863564393363013
 33
0.0
  0
MTEXT
  5
4C4
330
3E2
100
AcDbEntity
  8
Dimension (ANSI)
100
AcDbMText
 10
2.57296154177624
 20
5.926022420961812
 30
0.0
 40
0.1200000047683716
 41
0.0
 71
     1
 72
     1
  1
\A1;1.70
  7
Note Text (ANSI)
 73
     1
 44
1.0
1001
ACAD
1000
MTEXTBEGIN
1070
    73
1070
     1
1070
    44
1040
1.0
1070
    74
1070
     0
1000
MTEXTEND
  0
POINT
  5
4C5
330
3E2
100
AcDbEntity
  8
Defpoints
 62
     0
100
AcDbPoint
 10
3.153655177224155
 20
5.863564393363013
 30
0.0
  0
POINT
  5
4C6
330
3E2
100
AcDbEntity
  8
Defpoints
 62
     0
100
AcDbPoint
 10
3.218655177224154
 20
5.841321121832781
 30
0.0
  0
POINT
  5
4C7
330
3E2
100
AcDbEntity
  8
Defpoints
 62
     0
100
AcDbPoint
 10
3.218655177224154
 20
5.863564393363013
 30
0.0
  0
ENDBLK
  5
3E4
330
3E2
100
AcDbEntity
  8
0
100
AcDbBlockEnd
  0
BLOCK
  5
4CC
330
4CB
100
AcDbEntity
  8
0
100
AcDbBlockBegin
  2
*D9
 70
     1
 10
0.0
 20
0.0
 30
0.0
  3
*D9
  1

  0
LINE
  5
5AA
330
4CB
100
AcDbEntity
  8
Dimension (ANSI)
100
AcDbLine
 10
2.688155177224154
 20
4.519853417905355
 30
0.0
 11
1.089680707275812
 21
4.519853417905355
 31
0.0
  0
LINE
  5
5AB
330
4CB
100
AcDbEntity
  8
Dimension (ANSI)
100
AcDbLine
 10
2.908155177224155
 20
6.102853417905355
 30
0.0
 11
1.089680707275812
 21
6.102853417905357
 31
0.0
  0
LINE
  5
5AC
330
4CB
100
AcDbEntity
  8
Dimension (ANSI)
100
AcDbLine
 10
1.214680707275812
 20
4.618278612526441
 30
0.0
 11
1.214680707275812
 21
5.217359031812753
 31
0.0
  0
LINE
  5
5AD
330
4CB
100
AcDbEntity
  8
Dimension (ANSI)
100
AcDbLine
 10
1.214680707275812
 20
6.004428223284269
 30
0.0
 11
1.214680707275812
 21
5.405347803997956
 31
0.0
  0
SOLID
  5
5AE
330
4CB
100
AcDbEntity
  8
Dimension (ANSI)
100
AcDbTrace
 10
1.198276508172297
 20
4.618278612526441
 30
0.0
 11
1.231084906379325
 21
4.618278612526441
 31
0.0
 12
1.214680707275812
 22
4.519853417905355
 32
0.0
 13
1.214680707275812
 23
4.519853417905355
 33
0.0
  0
SOLID
  5
5AF
330
4CB
100
AcDbEntity
  8
Dimension (ANSI)
100
AcDbTrace
 10
1.198276508172297
 20
6.004428223284269
 30
0.0
 11
1.231084906379325
 21
6.004428223284269
 31
0.0
 12
1.214680707275812
 22
6.102853417905357
 32
0.0
 13
1.214680707275812
 23
6.102853417905357
 33
0.0
  0
MTEXT
  5
5B0
330
4CB
100
AcDbEntity
  8
Dimension (ANSI)
100
AcDbMText
 10
0.9870514183044496
 20
5.373851741005829
 30
0.0
 40
0.1200000047683716
 41
0.0
 71
     1
 72
     1
  1
\A1; 40.20
  7
Note Text (ANSI)
 73
     1
 44
1.0
1001
ACAD
1000
MTEXTBEGIN
1070
    73
1070
     1
1070
    44
1040
1.0
1070
    74
1070
     0
1000
MTEXTEND
  0
POINT
  5
5B1
330
4CB
100
AcDbEntity
  8
Defpoints
 62
     0
100
AcDbPoint
 10
2.750655177224154
 20
4.519853417905355
 30
0.0
  0
POINT
  5
5B2
330
4CB
100
AcDbEntity
  8
Defpoints
 62
     0
100
AcDbPoint
 10
2.970655177224155
 20
6.102853417905355
 30
0.0
  0
POINT
  5
5B3
330
4CB
100
AcDbEntity
  8
Defpoints
 62
     0
100
AcDbPoint
 10
1.214680707275812
 20
6.102853417905357
 30
0.0
  0
ENDBLK
  5
4CD
330
4CB
100
AcDbEntity
  8
0
100
AcDbBlockEnd
  0
BLOCK
  5
5B6
330
5B5
100
AcDbEntity
  8
0
100
AcDbBlockBegin
  2
*D10
 70
     1
 10
0.0
 20
0.0
 30
0.0
  3
*D10
  1

  0
LINE
  5
694
330
5B5
100
AcDbEntity
  8
Dimension (ANSI)
100
AcDbLine
 10
2.908155177224155
 20
6.102853417905355
 30
0.0
 11
1.089680707275812
 21
6.102853417905357
 31
0.0
  0
LINE
  5
695
330
5B5
100
AcDbEntity
  8
Dimension (ANSI)
100
AcDbLine
 10
2.908155177224155
 20
7.204853417905355
 30
0.0
 11
1.089680707275812
 21
7.204853417905356
 31
0.0
  0
LINE
  5
696
330
5B5
100
AcDbEntity
  8
Dimension (ANSI)
100
AcDbLine
 10
1.214680707275812
 20
6.201278612526441
 30
0.0
 11
1.214680707275812
 21
6.559617258802695
 31
0.0
  0
LINE
  5
697
330
5B5
100
AcDbEntity
  8
Dimension (ANSI)
100
AcDbLine
 10
1.214680707275812
 20
7.106428223284269
 30
0.0
 11
1.214680707275812
 21
6.748089577008015
 31
0.0
  0
SOLID
  5
698
330
5B5
100
AcDbEntity
  8
Dimension (ANSI)
100
AcDbTrace
 10
1.198276508172297
 20
6.201278612526441
 30
0.0
 11
1.231084906379325
 21
6.201278612526441
 31
0.0
 12
1.214680707275812
 22
6.102853417905357
 32
0.0
 13
1.214680707275812
 23
6.102853417905357
 33
0.0
  0
SOLID
  5
699
330
5B5
100
AcDbEntity
  8
Dimension (ANSI)
100
AcDbTrace
 10
1.198276508172297
 20
7.106428223284269
 30
0.0
 11
1.231084906379325
 21
7.106428223284269
 31
0.0
 12
1.214680707275812
 22
7.204853417905356
 32
0.0
 13
1.214680707275812
 23
7.204853417905356
 33
0.0
  0
MTEXT
  5
69A
330
5B5
100
AcDbEntity
  8
Dimension (ANSI)
100
AcDbMText
 10
0.9870514183044496
 20
6.716593514015888
 30
0.0
 40
0.1200000047683716
 41
0.0
 71
     1
 72
     1
  1
\A1; 28.00
  7
Note Text (ANSI)
 73
     1
 44
1.0
1001
ACAD
1000
MTEXTBEGIN
1070
    73
1070
     1
1070
    44
1040
1.0
1070
    74
1070
     0
1000
MTEXTEND
  0
POINT
  5
69B
330
5B5
100
AcDbEntity
  8
Defpoints
 62
     0
100
AcDbPoint
 10
2.970655177224155
 20
6.102853417905355
 30
0.0
  0
POINT
  5
69C
330
5B5
100
AcDbEntity
  8
Defpoints
 62
     0
100
AcDbPoint
 10
2.970655177224155
 20
7.204853417905355
 30
0.0
  0
POINT
  5
69D
330
5B5
100
AcDbEntity
  8
Defpoints
 62
     0
100
AcDbPoint
 10
1.214680707275812
 20
7.204853417905356
 30
0.0
  0
ENDBLK
  5
5B7
330
5B5
100
AcDbEntity
  8
0
100
AcDbBlockEnd
  0
BLOCK
  5
6A0
330
69F
100
AcDbEntity
  8
0
100
AcDbBlockBegin
  2
*D11
 70
     1
 10
0.0
 20
0.0
 30
0.0
  3
*D11
  1

  0
LINE
  5
77E
330
69F
100
AcDbEntity
  8
Dimension (ANSI)
100
AcDbLine
 10
2.718655177224154
 20
7.361353417905355
 30
0.0
 11
2.718655177224154
 21
7.713721941158357
 31
0.0
  0
LINE
  5
77F
330
69F
100
AcDbEntity
  8
Dimension (ANSI)
100
AcDbLine
 10
2.938655177224153
 20
7.235353417905355
 30
0.0
 11
2.938655177224153
 21
7.713721941158357
 31
0.0
  0
LINE
  5
780
330
69F
100
AcDbEntity
  8
Dimension (ANSI)
100
AcDbLine
 10
3.037080371845239
 20
7.588721941158357
 30
0.0
 11
3.135505566466326
 21
7.588721941158357
 31
0.0
  0
LINE
  5
781
330
69F
100
AcDbEntity
  8
Dimension (ANSI)
100
AcDbLine
 10
2.620229982603068
 20
7.588721941158357
 30
0.0
 11
2.50008219602523
 21
7.588721941158357
 31
0.0
  0
SOLID
  5
782
330
69F
100
AcDbEntity
  8
Dimension (ANSI)
100
AcDbTrace
 10
3.037080371845239
 20
7.605126140261871
 30
0.0
 11
3.037080371845239
 21
7.572317742054844
 31
0.0
 12
2.938655177224153
 22
7.588721941158357
 32
0.0
 13
2.938655177224153
 23
7.588721941158357
 33
0.0
  0
SOLID
  5
783
330
69F
100
AcDbEntity
  8
Dimension (ANSI)
100
AcDbTrace
 10
2.620229982603068
 20
7.605126140261871
 30
0.0
 11
2.620229982603068
 21
7.572317742054844
 31
0.0
 12
2.718655177224154
 22
7.588721941158357
 32
0.0
 13
2.718655177224154
 23
7.588721941158357
 33
0.0
  0
MTEXT
  5
784
330
69F
100
AcDbEntity
  8
Dimension (ANSI)
100
AcDbMText
 10
2.102702977809178
 20
7.651462037268892
 30
0.0
 40
0.1200000047683716
 41
0.0
 71
     1
 72
     1
  1
\A1; 5.58
  7
Note Text (ANSI)
 73
     1
 44
1.0
1001
ACAD
1000
MTEXTBEGIN
1070
    73
1070
     1
1070
    44
1040
1.0
1070
    74
1070
     0
1000
MTEXTEND
  0
POINT
  5
785
330
69F
100
AcDbEntity
  8
Defpoints
 62
     0
100
AcDbPoint
 10
2.718655177224154
 20
7.298853417905355
 30
0.0
  0
POINT
  5
786
330
69F
100
AcDbEntity
  8
Defpoints
 62
     0
100
AcDbPoint
 10
2.938655177224153
 20
7.172853417905355
 30
0.0
  0
POINT
  5
787
330
69F
100
AcDbEntity
  8
Defpoints
 62
     0
100
AcDbPoint
 10
2.938655177224153
 20
7.588721941158357
 30
0.0
  0
ENDBLK
  5
6A1
330
69F
100
AcDbEntity
  8
0
100
AcDbBlockEnd
  0
BLOCK
  5
78A
330
789
100
AcDbEntity
  8
0
100
AcDbBlockBegin
  2
*D12
 70
     1
 10
0.0
 20
0.0
 30
0.0
  3
*D12
  1

  0
LINE
  5
868
330
789
100
AcDbEntity
  8
Dimension (ANSI)
100
AcDbLine
 10
2.938655177224153
 20
7.235353417905355
 30
0.0
 11
2.938655177224153
 21
8.001105186155637
 31
0.0
  0
LINE
  5
869
330
789
100
AcDbEntity
  8
Dimension (ANSI)
100
AcDbLine
 10
3.098655177224153
 20
7.235353417905355
 30
0.0
 11
3.098655177224153
 21
8.001105186155637
 31
0.0
  0
LINE
  5
86A
330
789
100
AcDbEntity
  8
Dimension (ANSI)
100
AcDbLine
 10
3.19708037184524
 20
7.876105186155637
 30
0.0
 11
3.295505566466326
 21
7.876105186155637
 31
0.0
  0
LINE
  5
86B
330
789
100
AcDbEntity
  8
Dimension (ANSI)
100
AcDbLine
 10
2.840229982603068
 20
7.876105186155637
 30
0.0
 11
2.720364264536966
 21
7.876105186155637
 31
0.0
  0
SOLID
  5
86C
330
789
100
AcDbEntity
  8
Dimension (ANSI)
100
AcDbTrace
 10
3.19708037184524
 20
7.892509385259153
 30
0.0
 11
3.19708037184524
 21
7.859700987052121
 31
0.0
 12
3.098655177224153
 22
7.876105186155637
 32
0.0
 13
3.098655177224153
 23
7.876105186155637
 33
0.0
  0
SOLID
  5
86D
330
789
100
AcDbEntity
  8
Dimension (ANSI)
100
AcDbTrace
 10
2.840229982603068
 20
7.892509385259153
 30
0.0
 11
2.840229982603068
 21
7.859700987052121
 31
0.0
 12
2.938655177224153
 22
7.876105186155637
 32
0.0
 13
2.938655177224153
 23
7.876105186155637
 33
0.0
  0
MTEXT
  5
86E
330
789
100
AcDbEntity
  8
Dimension (ANSI)
100
AcDbMText
 10
2.322420909297441
 20
7.938563213754436
 30
0.0
 40
0.1200000047683716
 41
0.0
 71
     1
 72
     1
  1
\A1; 4.06
  7
Note Text (ANSI)
 73
     1
 44
1.0
1001
ACAD
1000
MTEXTBEGIN
1070
    73
1070
     1
1070
    44
1040
1.0
1070
    74
1070
     0
1000
MTEXTEND
  0
POINT
  5
86F
330
789
100
AcDbEntity
  8
Defpoints
 62
     0
100
AcDbPoint
 10
2.938655177224153
 20
7.172853417905355
 30
0.0
  0
POINT
  5
870
330
789
100
AcDbEntity
  8
Defpoints
 62
     0
100
AcDbPoint
 10
3.098655177224153
 20
7.172853417905355
 30
0.0
  0
POINT
  5
871
330
789
100
AcDbEntity
  8
Defpoints
 62
     0
100
AcDbPoint
 10
3.098655177224153
 20
7.876105186155637
 30
0.0
  0
ENDBLK
  5
78B
330
789
100
AcDbEntity
  8
0
100
AcDbBlockEnd
  0
ENDSEC
  0
SECTION
  2
ENTITIES
  0
INSERT
  5
129
330
6C
100
AcDbEntity
  8
0
100
AcDbBlockReference
  2
Borders Default Border
 10
0.0
 20
0.0
 30
0.0
  0
INSERT
  5
15E
330
6C
100
AcDbEntity
  8
0
100
AcDbBlockReference
 66
     1
  2
Title Blocks ANSI - Large
 10
-2.130010039370076
 20
-4.569984125718458
 30
0.0
  0
ATTRIB
  5
160
102
{ACAD_XDICTIONARY
360
8AC
102
}
330
15E
100
AcDbEntity
  8
Title (ANSI)
100
AcDbText
 10
2.900000000000001
 20
1.070510408908169
 30
0.0
 40
0.1249999981226883
  1

  7
Text Style39
 11
2.900000000000001
 21
1.034999999999997
 31
0.0
100
AcDbAttribute
  2
ENG_APPROVED_BY
 70
     0
 74
     1
  0
ATTRIB
  5
161
102
{ACAD_XDICTIONARY
360
8AF
102
}
330
15E
100
AcDbEntity
  8
Title (ANSI)
100
AcDbText
 10
2.900000000000001
 20
1.445510408908169
 30
0.0
 40
0.1249999981226883
  1

  7
Text Style39
 11
2.900000000000001
 21
1.409999999999996
 31
0.0
100
AcDbAttribute
  2
MFG_APPROVED_BY
 70
     0
 74
     1
  0
ATTRIB
  5
162
102
{ACAD_XDICTIONARY
360
8B2
102
}
330
15E
100
AcDbEntity
  8
Title (ANSI)
100
AcDbText
 10
2.877165883559749
 20
2.645840607021652
 30
0.0
 40
0.1249999981226883
  1
rnorthrop
  7
Text Style39
100
AcDbAttribute
  2
AUTHOR_001
 70
     0
  0
ATTRIB
  5
163
102
{ACAD_XDICTIONARY
360
8B5
102
}
330
15E
100
AcDbEntity
  8
Title (ANSI)
100
AcDbText
 10
2.900000000000001
 20
2.195510408908169
 30
0.0
 40
0.1249999981226883
  1

  7
Text Style39
 11
2.900000000000001
 21
2.159999999999996
 31
0.0
100
AcDbAttribute
  2
CHECKED_BY
 70
     0
 74
     1
  0
ATTRIB
  5
164
102
{ACAD_XDICTIONARY
360
8B8
102
}
330
15E
100
AcDbEntity
  8
Title (ANSI)
100
AcDbText
 10
4.638754353474404
 20
2.631065590501493
 30
0.0
 40
0.1249999981226883
  1
9/30/2011
  7
Text Style39
100
AcDbAttribute
  2
CREATION_DATE_001
 70
     0
  0
ATTRIB
  5
165
102
{ACAD_XDICTIONARY
360
8BB
102
}
330
15E
100
AcDbEntity
  8
Title (ANSI)
100
AcDbText
 10
4.650003513779528
 20
2.195510408908172
 30
0.0
 40
0.1249999981226883
  1

  7
Text Style39
 11
4.650003513779528
 21
2.16
 31
0.0
100
AcDbAttribute
  2
CHECKED_DATE
 70
     0
 74
     1
  0
ATTRIB
  5
166
102
{ACAD_XDICTIONARY
360
8BE
102
}
330
15E
100
AcDbEntity
  8
Title (ANSI)
100
AcDbText
 10
4.650003513779528
 20
1.445510408908173
 30
0.0
 40
0.1249999981226883
  1

  7
Text Style39
 11
4.650003513779528
 21
1.41
 31
0.0
100
AcDbAttribute
  2
MFG_APPROVED_DATE
 70
     0
 74
     1
  0
ATTRIB
  5
167
102
{ACAD_XDICTIONARY
360
8C1
102
}
330
15E
100
AcDbEntity
  8
Title (ANSI)
100
AcDbText
 10
4.650003513779528
 20
1.070510408908173
 30
0.0
 40
0.1249999981226883
  1

  7
Text Style39
 11
4.650003513779528
 21
1.035000000000001
 31
0.0
100
AcDbAttribute
  2
ENG_APPROVAL_DATE
 70
     0
 74
     1
  0
ATTRIB
  5
168
102
{ACAD_XDICTIONARY
360
8C4
102
}
330
15E
100
AcDbEntity
  8
Title (ANSI)
100
AcDbText
 10
7.117844191486534
 20
0.7274949616726099
 30
0.0
 40
0.1799999963580154
  1
UCHOLAfrontPanel
  7
Text Style30
100
AcDbAttribute
  2
PART_NUMBER_001
 70
     0
  0
ATTRIB
  5
169
102
{ACAD_XDICTIONARY
360
8C7
102
}
330
15E
100
AcDbEntity
  8
Title (ANSI)
100
AcDbText
 10
5.649999999999998
 20
1.562761820729618
 30
0.0
 40
0.1799999963580154
  1

  7
Text Style30
 11
5.649999999999998
 21
1.652761818908625
 31
0.0
100
AcDbAttribute
  2
TITLE
 70
     0
 74
     2
  0
ATTRIB
  5
16A
102
{ACAD_XDICTIONARY
360
8CA
102
}
330
15E
100
AcDbEntity
  8
Title (ANSI)
100
AcDbText
 10
5.795775690366734
 20
0.7150007547737474
 30
0.0
 40
0.1799999963580154
  1
A
  7
Text Style30
100
AcDbAttribute
  2
Sheet_Size_001
 70
     0
  0
ATTRIB
  5
16B
102
{ACAD_XDICTIONARY
360
8CD
102
}
330
15E
100
AcDbEntity
  8
Title (ANSI)
100
AcDbText
 10
8.119999999999999
 20
2.507501888340229
 30
0.0
 40
0.1249999981226883
  1

  7
Text Style39
 72
     1
 11
8.119999999999999
 21
2.570001887401573
 31
0.0
100
AcDbAttribute
  2
COMPANY
 70
     0
 74
     2
  0
ATTRIB
  5
16C
102
{ACAD_XDICTIONARY
360
8D0
102
}
330
15E
100
AcDbEntity
  8
Title (ANSI)
100
AcDbText
 10
10.37
 20
0.7425007538914197
 30
0.0
 40
0.1249999981226883
  1

  7
Text Style39
 72
     1
 11
10.37
 21
0.8050007529527638
 31
0.0
100
AcDbAttribute
  2
REVISION_NUMBER
 70
     0
 74
     2
  0
SEQEND
  5
15F
330
15E
100
AcDbEntity
  8
0
  0
ARC
  5
16D
330
6C
100
AcDbEntity
  8
Visible (ANSI)
100
AcDbCircle
 10
3.066655177224155
 20
7.172853417905355
 30
0.0
 40
0.0319999999999996
100
AcDbArc
 50
0.0
 51
90.00000000000124
  0
ARC
  5
16E
330
6C
100
AcDbEntity
  8
Visible (ANSI)
100
AcDbCircle
 10
2.970655177224153
 20
7.172853417905355
 30
0.0
 40
0.0319999999999995
100
AcDbArc
 50
89.99999999999937
 51
180.0
  0
ARC
  5
16F
330
6C
100
AcDbEntity
  8
Visible (ANSI)
100
AcDbCircle
 10
3.066655177224155
 20
6.134853417905353
 30
0.0
 40
0.0319999999999995
100
AcDbArc
 50
269.9999999999994
 51
0.0
  0
ARC
  5
170
330
6C
100
AcDbEntity
  8
Visible (ANSI)
100
AcDbCircle
 10
2.970655177224153
 20
6.134853417905353
 30
0.0
 40
0.0319999999999996
100
AcDbArc
 50
180.0
 51
270.0
  0
LINE
  5
171
330
6C
100
AcDbEntity
  8
Visible (ANSI)
100
AcDbLine
 10
2.970655177224153
 20
7.204853417905355
 30
0.0
 11
3.066655177224153
 21
7.204853417905355
 31
0.0
  0
LINE
  5
172
330
6C
100
AcDbEntity
  8
Visible (ANSI)
100
AcDbLine
 10
2.938655177224155
 20
6.134853417905355
 30
0.0
 11
2.938655177224153
 21
7.172853417905355
 31
0.0
  0
LINE
  5
173
330
6C
100
AcDbEntity
  8
Visible (ANSI)
100
AcDbLine
 10
3.098655177224153
 20
7.172853417905355
 30
0.0
 11
3.098655177224155
 21
6.134853417905355
 31
0.0
  0
LINE
  5
174
330
6C
100
AcDbEntity
  8
Visible (ANSI)
100
AcDbLine
 10
3.066655177224155
 20
6.102853417905355
 30
0.0
 11
2.970655177224155
 21
6.102853417905355
 31
0.0
  0
ARC
  5
175
330
6C
100
AcDbEntity
  8
Visible (ANSI)
100
AcDbCircle
 10
2.750655177224154
 20
4.551853417905356
 30
0.0
 40
0.032
100
AcDbArc
 50
180.0
 51
270.0
  0
ARC
  5
176
330
6C
100
AcDbEntity
  8
Visible (ANSI)
100
AcDbCircle
 10
3.186655177224154
 20
4.551853417905356
 30
0.0
 40
0.032
100
AcDbArc
 50
270.0
 51
0.0
  0
ARC
  5
177
330
6C
100
AcDbEntity
  8
Visible (ANSI)
100
AcDbCircle
 10
2.750655177224154
 20
7.298853417905355
 30
0.0
 40
0.0319999999999996
100
AcDbArc
 50
89.99999999999873
 51
180.0
  0
ARC
  5
178
330
6C
100
AcDbEntity
  8
Visible (ANSI)
100
AcDbCircle
 10
3.186655177224154
 20
7.298853417905355
 30
0.0
 40
0.0319999999999995
100
AcDbArc
 50
0.0
 51
90.0
  0
LINE
  5
179
330
6C
100
AcDbEntity
  8
Visible (ANSI)
100
AcDbLine
 10
2.750655177224154
 20
4.519853417905355
 30
0.0
 11
3.186655177224154
 21
4.519853417905355
 31
0.0
  0
LINE
  5
17A
330
6C
100
AcDbEntity
  8
Visible (ANSI)
100
AcDbLine
 10
3.218655177224154
 20
4.551853417905356
 30
0.0
 11
3.218655177224154
 21
7.298853417905355
 31
0.0
  0
LINE
  5
17B
330
6C
100
AcDbEntity
  8
Visible (ANSI)
100
AcDbLine
 10
2.718655177224154
 20
7.298853417905355
 30
0.0
 11
2.718655177224154
 21
6.056853417905355
 31
0.0
  0
LINE
  5
17C
330
6C
100
AcDbEntity
  8
Visible (ANSI)
100
AcDbLine
 10
3.186655177224154
 20
7.330853417905355
 30
0.0
 11
2.750655177224154
 21
7.330853417905355
 31
0.0
  0
LINE
  5
17D
330
6C
100
AcDbEntity
  8
Visible (ANSI)
100
AcDbLine
 10
2.718655177224154
 20
4.666853417905356
 30
0.0
 11
2.718655177224154
 21
4.551853417905356
 31
0.0
  0
LINE
  5
17E
330
6C
100
AcDbEntity
  8
Visible (ANSI)
100
AcDbLine
 10
2.718655177224154
 20
7.382853417905352
 30
0.0
 11
2.718655177224154
 21
7.298853417905355
 31
0.0
  0
LINE
  5
17F
330
6C
100
AcDbEntity
  8
Visible (ANSI)
100
AcDbLine
 10
3.156655177224153
 20
7.330853417905355
 30
0.0
 11
3.156655177224153
 21
7.382853417905352
 31
0.0
  0
LINE
  5
180
330
6C
100
AcDbEntity
  8
Visible (ANSI)
100
AcDbLine
 10
3.156655177224153
 20
7.382853417905352
 30
0.0
 11
2.718655177224154
 21
7.382853417905352
 31
0.0
  0
LINE
  5
181
330
6C
100
AcDbEntity
  8
Visible (ANSI)
100
AcDbLine
 10
3.156655177224153
 20
4.519853417905355
 30
0.0
 11
3.156655177224153
 21
4.476853417905353
 31
0.0
  0
LINE
  5
182
330
6C
100
AcDbEntity
  8
Visible (ANSI)
100
AcDbLine
 10
3.156655177224153
 20
4.476853417905353
 30
0.0
 11
2.718655177224154
 21
4.476853417905353
 31
0.0
  0
LINE
  5
183
330
6C
100
AcDbEntity
  8
Visible (ANSI)
100
AcDbLine
 10
2.718655177224154
 20
4.551853417905356
 30
0.0
 11
2.718655177224154
 21
4.476853417905353
 31
0.0
  0
ARC
  5
184
330
6C
100
AcDbEntity
  8
Visible (ANSI)
100
AcDbCircle
 10
3.121655177224154
 20
4.698853417905355
 30
0.0
 40
0.032
100
AcDbArc
 50
270.0
 51
0.0
  0
ARC
  5
185
330
6C
100
AcDbEntity
  8
Visible (ANSI)
100
AcDbCircle
 10
3.121655177224154
 20
6.024853417905355
 30
0.0
 40
0.0320000000000002
100
AcDbArc
 50
0.0
 51
89.99999999999937
  0
LINE
  5
186
330
6C
100
AcDbEntity
  8
Visible (ANSI)
100
AcDbLine
 10
3.153655177224155
 20
6.024853417905355
 30
0.0
 11
3.153655177224155
 21
4.698853417905355
 31
0.0
  0
LINE
  5
187
330
6C
100
AcDbEntity
  8
Visible (ANSI)
100
AcDbLine
 10
2.718655177224154
 20
6.056853417905355
 30
0.0
 11
3.121655177224154
 21
6.056853417905355
 31
0.0
  0
LINE
  5
188
330
6C
100
AcDbEntity
  8
Visible (ANSI)
100
AcDbLine
 10
3.121655177224154
 20
4.666853417905356
 30
0.0
 11
2.718655177224154
 21
4.666853417905356
 31
0.0
  0
MTEXT
  5
189
330
6C
100
AcDbEntity
  8
Symbol (ANSI)
100
AcDbMText
 10
2.775827379594786
 20
7.297192902530402
 30
0.0
 40
0.0750000023935724
 41
0.3863654737397441
 71
     1
 72
     1
  1
{\fTahoma|b0|i0;\H0.0750;UCHOLA}
  7
Note Text (ANSI)
 73
     1
 44
1.0
1001
ACAD
1000
MTEXTBEGIN
1070
    73
1070
     1
1070
    44
1040
1.0
1070
    74
1070
     0
1000
MTEXTEND
  0
MTEXT
  5
18A
330
6C
100
AcDbEntity
  8
Symbol (ANSI)
100
AcDbMText
 10
2.748042936462335
 20
7.142092973206023
 30
0.0
 40
0.0500000015957149
 41
0.0
 71
     1
 72
     1
  1
{\fTahoma|b0|i0;\H0.0500;PWR}
  7
Note Text (ANSI)
 73
     1
 44
1.0
1001
ACAD
1000
MTEXTBEGIN
1070
    73
1070
     1
1070
    44
1040
1.0
1070
    74
1070
     0
1000
MTEXTEND
  0
MTEXT
  5
18B
330
6C
100
AcDbEntity
  8
Symbol (ANSI)
100
AcDbMText
 10
2.765327783210758
 20
7.03116766402856
 30
0.0
 40
0.0500000015957149
 41
0.0
 71
     1
 72
     1
  1
{\fTahoma|b0|i0;\H0.0500;TST}
  7
Note Text (ANSI)
 73
     1
 44
1.0
1001
ACAD
1000
MTEXTBEGIN
1070
    73
1070
     1
1070
    44
1040
1.0
1070
    74
1070
     0
1000
MTEXTEND
  0
MTEXT
  5
18C
330
6C
100
AcDbEntity
  8
Symbol (ANSI)
100
AcDbMText
 10
2.761826119201291
 20
6.913053510470686
 30
0.0
 40
0.0500000015957149
 41
0.0
 71
     1
 72
     1
  1
{\fTahoma|b0|i0;\H0.0500;ERR}
  7
Note Text (ANSI)
 73
     1
 44
1.0
1001
ACAD
1000
MTEXTBEGIN
1070
    73
1070
     1
1070
    44
1040
1.0
1070
    74
1070
     0
1000
MTEXTEND
  0
MTEXT
  5
18D
330
6C
100
AcDbEntity
  8
Symbol (ANSI)
100
AcDbMText
 10
2.765114155019723
 20
6.78141618182969
 30
0.0
 40
0.0500000015957149
 41
0.0
 71
     1
 72
     1
  1
{\fTahoma|b0|i0;\H0.0500;UP0}
  7
Note Text (ANSI)
 73
     1
 44
1.0
1001
ACAD
1000
MTEXTBEGIN
1070
    73
1070
     1
1070
    44
1040
1.0
1070
    74
1070
     0
1000
MTEXTEND
  0
MTEXT
  5
18E
330
6C
100
AcDbEntity
  8
Symbol (ANSI)
100
AcDbMText
 10
2.772228508060884
 20
6.632902997172486
 30
0.0
 40
0.0500000015957149
 41
0.0
 71
     1
 72
     1
  1
{\fTahoma|b0|i0;\H0.0500;UP1}
  7
Note Text (ANSI)
 73
     1
 44
1.0
1001
ACAD
1000
MTEXTBEGIN
1070
    73
1070
     1
1070
    44
1040
1.0
1070
    74
1070
     0
1000
MTEXTEND
  0
MTEXT
  5
18F
330
6C
100
AcDbEntity
  8
Symbol (ANSI)
100
AcDbMText
 10
2.775395673749212
 20
6.490240660703769
 30
0.0
 40
0.0500000015957149
 41
0.0
 71
     1
 72
     1
  1
{\fTahoma|b0|i0;\H0.0500;XF0}
  7
Note Text (ANSI)
 73
     1
 44
1.0
1001
ACAD
1000
MTEXTBEGIN
1070
    73
1070
     1
1070
    44
1040
1.0
1070
    74
1070
     0
1000
MTEXTEND
  0
MTEXT
  5
190
330
6C
100
AcDbEntity
  8
Symbol (ANSI)
100
AcDbMText
 10
2.77573017207035
 20
6.366005804862611
 30
0.0
 40
0.0500000015957149
 41
0.0
 71
     1
 72
     1
  1
{\fTahoma|b0|i0;\H0.0500;XF1}
  7
Note Text (ANSI)
 73
     1
 44
1.0
1001
ACAD
1000
MTEXTBEGIN
1070
    73
1070
     1
1070
    44
1040
1.0
1070
    74
1070
     0
1000
MTEXTEND
  0
MTEXT
  5
191
330
6C
100
AcDbEntity
  8
Symbol (ANSI)
100
AcDbMText
 10
2.779584601362249
 20
6.238176526831241
 30
0.0
 40
0.0500000015957149
 41
0.0
 71
     1
 72
     1
  1
{\fTahoma|b0|i0;\H0.0500;ACT}
  7
Note Text (ANSI)
 73
     1
 44
1.0
1001
ACAD
1000
MTEXTBEGIN
1070
    73
1070
     1
1070
    44
1040
1.0
1070
    74
1070
     0
1000
MTEXTEND
  0
MTEXT
  5
192
330
6C
100
AcDbEntity
  8
Symbol (ANSI)
100
AcDbMText
 10
6.57849189791361
 20
2.03118432984804
 30
0.0
 40
0.2400000029661524
 41
2.9926093544547
 71
     1
 72
     1
  1
{\fTahoma|b0|i0;\H0.2400;UCHOLA Front Panel\P           Detail}
  7
Note Text (ANSI)
 73
     2
 44
0.9878841638565063
1001
ACAD
1000
MTEXTBEGIN
1070
    73
1070
     2
1070
    44
1040
0.9878841638565063
1070
    74
1070
     0
1000
MTEXTEND
  0
MTEXT
  5
193
330
6C
100
AcDbEntity
  8
Symbol (ANSI)
100
AcDbMText
 10
3.696315555128353
 20
2.376585571708084
 30
0.0
 40
0.1200000014830762
 41
0.2340680736256396
 71
     1
 72
     1
  1
{F T}
  7
Note Text (ANSI)
 73
     1
 44
1.0
1001
ACAD
1000
MTEXTBEGIN
1070
    73
1070
     1
1070
    44
1040
1.0
1070
    74
1070
     0
1000
MTEXTEND
  0
MTEXT
  5
194
330
6C
100
AcDbEntity
  8
Symbol (ANSI)
100
AcDbMText
 10
3.724207584252082
 20
1.27949918916312
 30
0.0
 40
0.1200000014830762
 41
0.2340680736256396
 71
     1
 72
     1
  1
{F T}
  7
Note Text (ANSI)
 73
     1
 44
1.0
1001
ACAD
1000
MTEXTBEGIN
1070
    73
1070
     1
1070
    44
1040
1.0
1070
    74
1070
     0
1000
MTEXTEND
  0
MTEXT
  5
195
330
6C
100
AcDbEntity
  8
Symbol (ANSI)
100
AcDbMText
 10
6.150814118016443
 20
0.5636038378414074
 30
0.0
 40
0.1200000014830762
 41
0.3584440768234373
 71
     1
 72
     1
  1
{FULL}
  7
Note Text (ANSI)
 73
     1
 44
1.0
1001
ACAD
1000
MTEXTBEGIN
1070
    73
1070
     1
1070
    44
1040
1.0
1070
    74
1070
     0
1000
MTEXTEND
  0
MTEXT
  5
196
330
6C
100
AcDbEntity
  8
Symbol (ANSI)
100
AcDbMText
 10
5.69349843426591
 20
2.636911154006889
 30
0.0
 40
0.115000004843464
 41
4.826272378756303
 71
     1
 72
     1
  1
{\fTahoma|b1|i0;\H0.1150;The University of Chicago -  Electronics Developement Group}
  7
Note Text (ANSI)
 73
     1
 44
1.0
1001
ACAD
1000
MTEXTBEGIN
1070
    73
1070
     1
1070
    44
1040
1.0
1070
    74
1070
     0
1000
MTEXTEND
  0
LINE
  5
198
330
6C
100
AcDbEntity
  8
Visible (ANSI)
100
AcDbLine
 10
4.247274576372157
 20
4.519853417905355
 30
0.0
 11
4.34127457637216
 21
4.519853417905355
 31
0.0
  0
LINE
  5
199
330
6C
100
AcDbEntity
  8
Visible (ANSI)
100
AcDbLine
 10
4.341274576372168
 20
4.551853417905356
 30
0.0
 11
4.34127457637216
 21
4.519853417905355
 31
0.0
  0
LINE
  5
19A
330
6C
100
AcDbEntity
  8
Visible (ANSI)
100
AcDbLine
 10
4.247274576372157
 20
4.519853417905355
 30
0.0
 11
4.247274576372167
 21
4.551853417905356
 31
0.0
  0
LINE
  5
19B
330
6C
100
AcDbEntity
  8
Visible (ANSI)
100
AcDbLine
 10
4.34127457637216
 20
7.330853417905355
 30
0.0
 11
4.341274576372168
 21
7.298853417905355
 31
0.0
  0
LINE
  5
19C
330
6C
100
AcDbEntity
  8
Visible (ANSI)
100
AcDbLine
 10
4.34127457637216
 20
7.330853417905355
 30
0.0
 11
4.247274576372157
 21
7.330853417905355
 31
0.0
  0
LINE
  5
19D
330
6C
100
AcDbEntity
  8
Visible (ANSI)
100
AcDbLine
 10
4.247274576372167
 20
7.298853417905353
 30
0.0
 11
4.247274576372157
 21
7.330853417905355
 31
0.0
  0
LINE
  5
19E
330
6C
100
AcDbEntity
  8
Visible (ANSI)
100
AcDbLine
 10
4.341274576372168
 20
4.551853417905356
 30
0.0
 11
4.341274576372168
 21
7.298853417905355
 31
0.0
  0
LINE
  5
19F
330
6C
100
AcDbEntity
  8
Visible (ANSI)
100
AcDbLine
 10
4.247274576372167
 20
4.551853417905356
 30
0.0
 11
4.247274576372167
 21
7.298853417905355
 31
0.0
  0
CIRCLE
  5
1A0
330
6C
100
AcDbEntity
  8
Visible (ANSI)
100
AcDbCircle
 10
4.824274576372149
 20
4.557853417905355
 30
0.0
 40
0.043
  0
CIRCLE
  5
1A1
330
6C
100
AcDbEntity
  8
Visible (ANSI)
100
AcDbCircle
 10
4.781274576372149
 20
7.295853417905355
 30
0.0
 40
0.042902117106788
  0
ARC
  5
1A2
330
6C
100
AcDbEntity
  8
Visible (ANSI)
100
AcDbCircle
 10
4.824481719523213
 20
4.563853417905355
 30
0.0
 40
0.0870000000000001
100
AcDbArc
 50
270.0
 51
356.045427877909
  0
ARC
  5
1A3
330
6C
100
AcDbEntity
  8
Visible (ANSI)
100
AcDbCircle
 10
4.824274576372149
 20
4.557853417905355
 30
0.0
 40
0.087
100
AcDbArc
 50
0.0
 51
90.0
  0
LINE
  5
1A4
330
6C
100
AcDbEntity
  8
Visible (ANSI)
100
AcDbLine
 10
4.34127457637215
 20
4.644853417905355
 30
0.0
 11
4.824274576372149
 21
4.644853417905355
 31
0.0
  0
LINE
  5
1A5
330
6C
100
AcDbEntity
  8
Visible (ANSI)
100
AcDbLine
 10
4.34127457637215
 20
4.519853417905355
 30
0.0
 11
4.34127457637215
 21
4.476853417905353
 31
0.0
  0
LINE
  5
1A6
330
6C
100
AcDbEntity
  8
Visible (ANSI)
100
AcDbLine
 10
4.34127457637215
 20
4.476853417905353
 30
0.0
 11
4.824481719523213
 21
4.476853417905353
 31
0.0
  0
ARC
  5
1A7
330
6C
100
AcDbEntity
  8
Visible (ANSI)
100
AcDbCircle
 10
4.781274576372149
 20
7.292853417905352
 30
0.0
 40
0.0870000000000001
100
AcDbArc
 50
270.0
 51
0.0
  0
LINE
  5
1A8
330
6C
100
AcDbEntity
  8
Visible (ANSI)
100
AcDbLine
 10
4.86827457637215
 20
7.292853417905352
 30
0.0
 11
4.86827457637215
 21
7.295853417905355
 31
0.0
  0
LINE
  5
1A9
330
6C
100
AcDbEntity
  8
Visible (ANSI)
100
AcDbLine
 10
4.34127457637215
 20
7.382853417905352
 30
0.0
 11
4.781274576372149
 21
7.382853417905352
 31
0.0
  0
LINE
  5
1AA
330
6C
100
AcDbEntity
  8
Visible (ANSI)
100
AcDbLine
 10
4.34127457637215
 20
7.330853417905355
 30
0.0
 11
4.34127457637215
 21
7.382853417905352
 31
0.0
  0
LINE
  5
1AB
330
6C
100
AcDbEntity
  8
Visible (ANSI)
100
AcDbLine
 10
4.34127457637215
 20
7.205853417905355
 30
0.0
 11
4.781274576372149
 21
7.205853417905355
 31
0.0
  0
ARC
  5
1AC
330
6C
100
AcDbEntity
  8
Visible (ANSI)
100
AcDbCircle
 10
4.781274576372149
 20
7.295853417905355
 30
0.0
 40
0.0869999999999996
100
AcDbArc
 50
0.0
 51
90.0
  0
DIMENSION
  5
1AD
330
6C
100
AcDbEntity
  8
Dimension (ANSI)
100
AcDbDimension
  2
*D6
 10
1.68678142415205
 20
4.519853417905355
 30
0.0
 11
2.000571055915788
 21
4.953559349557633
 31
0.0
 70
   160
  1
 3.74
 71
     5
 42
0.1470000000000011
  3
Default (ANSI)
100
AcDbAlignedDimension
 13
2.718655177224154
 23
4.666853417905356
 33
0.0
 14
2.750655177224154
 24
4.519853417905355
 34
0.0
 50
270.0
100
AcDbRotatedDimension
1001
ACAD
1000
DSTYLE
1002
{
1070
   289
1070
     1
1070
   271
1070
     2
1070
   272
1070
     2
1070
    48
1040
0.0
1070
    47
1040
0.0
1002
}
  0
DIMENSION
  5
2AC
330
6C
100
AcDbEntity
  8
Dimension (ANSI)
100
AcDbDimension
  2
*D7
 10
1.695732868055458
 20
6.056853417905356
 30
0.0
 11
1.695732868055458
 21
5.362853417905355
 31
0.0
 70
   160
  1
 35.30
 71
     5
 42
1.389999999999999
  3
Default (ANSI)
100
AcDbAlignedDimension
 13
2.718655177224154
 23
4.666853417905356
 33
0.0
 14
2.718655177224154
 24
6.056853417905355
 34
0.0
 50
90.0
100
AcDbRotatedDimension
1001
ACAD
1000
DSTYLE
1002
{
1070
   289
1070
     1
1070
   271
1070
     2
1070
   272
1070
     2
1070
    48
1040
0.0
1070
    47
1040
0.0
1002
}
  0
MTEXT
  5
396
102
{ACAD_REACTORS
330
397
102
}
330
6C
100
AcDbEntity
  8
Symbol (ANSI)
100
AcDbMText
 10
2.613916014040799
 20
5.683720781450494
 30
0.0
 40
0.1200000014830762
 41
0.6118638308968131
 71
     3
 72
     1
  1
{.80 Rad.\PTyp.}
  7
Note Text (ANSI)
 73
     2
 44
0.9878841638565063
1001
ACAD
1000
MTEXTBEGIN
1070
    73
1070
     2
1070
    44
1040
0.9878841638565063
1070
    74
1070
     0
1000
MTEXTEND
  0
LEADER
  5
397
330
6C
100
AcDbEntity
  8
Symbol (ANSI)
100
AcDbLeader
  3
Default (ANSI)$7
 73
     0
 75
     1
 40
0.357576837190582
 41
0.5813028950284948
 76
     3
 10
3.116199319688951
 20
4.682091554882259
 30
0.0
 10
2.743837271654011
 20
5.623720780708955
 30
0.0
 10
2.645412077032925
 20
5.623720780708955
 30
0.0
340
396
213
0.0
223
-0.0600000007415381
233
0.0
1001
ACAD
1000
DSTYLE
1002
{
1070
    77
1070
     0
1002
}
  0
MTEXT
  5
398
330
6C
100
AcDbEntity
  8
Symbol (ANSI)
100
AcDbMText
 10
5.6606555729437
 20
4.307274796356021
 30
0.0
 40
0.1799999963580154
 41
0.7903079348286305
 71
     1
 72
     1
  1
{\fTahoma|b0|i0;\H0.1800;Notes -}
  7
Note Text (ANSI)
 73
     1
 44
1.0
1001
ACAD
1000
MTEXTBEGIN
1070
    73
1070
     1
1070
    44
1040
1.0
1070
    74
1070
     0
1000
MTEXTEND
  0
MTEXT
  5
399
330
6C
100
AcDbEntity
  8
Symbol (ANSI)
100
AcDbMText
 10
5.652993603065022
 20
3.941484494753093
 30
0.0
 40
0.1299999947623005
 41
2.713460058677852
 71
     1
 72
     1
  1
{\fTahoma|b0|i0;\H0.1300;Use Standard 2.6 PMC Front Panel\PAll Dims. are in millimeters\PTolerance:   + - .25\P}
  7
Note Text (ANSI)
 73
     2
 44
0.6585894227027893
1001
ACAD
1000
MTEXTBEGIN
1070
    73
1070
     2
1070
    44
1040
0.6585894227027893
1070
    74
1070
     0
1000
MTEXTEND
  0
MTEXT
  5
39A
330
6C
100
AcDbEntity
  8
Symbol (ANSI)
100
AcDbMText
 10
3.15771076647983
 20
4.56038314263221
 30
0.0
 40
0.0500000015957149
 41
0.0
 71
     1
 72
     1
  1
{\fTahoma|b0|i0;\H0.0500;FTK}
  7
Note Text (ANSI)
 11
0.0000000000000001
 21
1.0
 31
0.0
 73
     1
 44
1.0
1001
ACAD
1000
MTEXTBEGIN
1070
    73
1070
     1
1070
    44
1040
1.0
1070
    74
1070
     0
1000
MTEXTEND
  0
MTEXT
  5
39B
330
6C
100
AcDbEntity
  8
Symbol (ANSI)
100
AcDbMText
 10
3.140289081470158
 20
6.109945211011987
 30
0.0
 40
0.0500000015957149
 41
0.0
 71
     1
 72
     1
  1
{\fTahoma|b0|i0;\H0.0500;DAQ}
  7
Note Text (ANSI)
 11
0.0000000000000001
 21
1.0
 31
0.0
 73
     1
 44
1.0
1001
ACAD
1000
MTEXTBEGIN
1070
    73
1070
     1
1070
    44
1040
1.0
1070
    74
1070
     0
1000
MTEXTEND
  0
ELLIPSE
  5
39C
330
6C
100
AcDbEntity
  8
Visible (ANSI)
100
AcDbEllipse
 10
9.437073416522736
 20
6.284007497157347
 30
0.0
 11
-0.0183643853863078
 21
0.031890270450141
 31
0.0
210
0.0
220
0.0
230
1.0
 40
0.5780931159158105
 41
3.928924525409896
 42
5.499720852204797
  0
ELLIPSE
  5
39D
330
6C
100
AcDbEntity
  8
Visible (ANSI)
100
AcDbEllipse
 10
9.359008827879726
 20
6.328961903960016
 30
0.0
 11
-0.0183643853863058
 21
0.0318902704501419
 31
0.0
210
0.0
220
0.0
230
1.0
 40
0.5780931159158106
 41
5.499720852205023
 42
7.070517178999931
  0
LINE
  5
39E
330
6C
100
AcDbEntity
  8
Visible Narrow (ANSI)
100
AcDbLine
 10
9.33298729833206
 20
6.343946706227572
 30
0.0
 11
9.359109659085282
 21
6.358989573324677
 31
0.0
  0
LINE
  5
39F
330
6C
100
AcDbEntity
  8
Visible Narrow (ANSI)
100
AcDbLine
 10
9.409425541378316
 20
5.412058559963988
 30
0.0
 11
9.33298729833206
 21
5.368040703303029
 31
0.0
  0
ELLIPSE
  5
3A0
330
6C
100
AcDbEntity
  8
Visible (ANSI)
100
AcDbEllipse
 10
9.437073416522736
 20
5.308101494232806
 30
0.0
 11
0.0183643853863058
 21
-0.0318902704501419
 31
0.0
210
0.0
220
0.0
230
1.0
 40
0.5780931159158106
 41
5.499720852205023
 42
7.070517178999955
  0
LINE
  5
3A1
330
6C
100
AcDbEntity
  8
Visible Narrow (ANSI)
100
AcDbLine
 10
9.463094751469773
 20
5.293000450243113
 30
0.0
 11
9.437073416522736
 21
5.278015760038601
 31
0.0
  0
ELLIPSE
  5
3A2
330
6C
100
AcDbEntity
  8
Visible (ANSI)
100
AcDbEllipse
 10
9.359008827879726
 20
5.353055901035473
 30
0.0
 11
0.0183643853863078
 21
-0.031890270450141
 31
0.0
210
0.0
220
0.0
230
1.0
 40
0.5780931159158105
 41
3.928924525409896
 42
5.499720852204797
  0
LINE
  5
3A3
330
6C
100
AcDbEntity
  8
Visible Narrow (ANSI)
100
AcDbLine
 10
9.35900882787973
 20
5.322970166841268
 30
0.0
 11
9.435447070925985
 21
5.366988023502226
 31
0.0
  0
ELLIPSE
  5
3A4
330
6C
100
AcDbEntity
  8
Visible (ANSI)
100
AcDbEllipse
 10
9.435447070925985
 20
5.397073757696431
 30
0.0
 11
-0.0183643853863039
 21
0.031890270450143
 31
0.0
210
0.0
220
0.0
230
1.0
 40
0.5780931159158106
 41
0.7873318718205642
 42
2.358128198615457
  0
LINE
  5
3A5
330
6C
100
AcDbEntity
  8
Visible (ANSI)
100
AcDbLine
 10
9.35900882787973
 20
6.359047638154223
 30
0.0
 11
9.437073416522736
 21
6.314093231351552
 31
0.0
  0
LINE
  5
3A6
330
6C
100
AcDbEntity
  8
Visible (ANSI)
100
AcDbLine
 10
9.33298729833206
 20
5.368040703303029
 30
0.0
 11
9.33298729833206
 21
6.343946706227572
 31
0.0
  0
LINE
  5
3A7
330
6C
100
AcDbEntity
  8
Visible (ANSI)
100
AcDbLine
 10
9.409425541378316
 20
6.330014583760844
 30
0.0
 11
9.409425541378316
 21
5.412058559963988
 31
0.0
  0
LINE
  5
3A8
330
6C
100
AcDbEntity
  8
Visible (ANSI)
100
AcDbLine
 10
9.463094946070404
 20
6.269022694889793
 30
0.0
 11
9.463094946070404
 21
5.29311669196525
 31
0.0
  0
LINE
  5
3A9
330
6C
100
AcDbEntity
  8
Visible (ANSI)
100
AcDbLine
 10
9.435447070925985
 20
5.366988023502226
 30
0.0
 11
9.463094946070404
 21
5.351066671092936
 31
0.0
  0
LINE
  5
3AA
330
6C
100
AcDbEntity
  8
Visible (ANSI)
100
AcDbLine
 10
9.437073416522736
 20
5.278015760038601
 30
0.0
 11
9.35900882787973
 21
5.322970166841268
 31
0.0
  0
ELLIPSE
  5
3AB
330
6C
100
AcDbEntity
  8
Visible (ANSI)
100
AcDbEllipse
 10
9.180110812239506
 20
3.967772753205318
 30
0.0
 11
-0.0183643853863042
 21
0.0318902704501435
 31
0.0
210
0.0
220
0.0
230
0.9999999999999998
 40
0.5780931159158107
 41
0.7873318718205873
 42
2.358128198615457
  0
ELLIPSE
  5
3AC
330
6C
100
AcDbEntity
  8
Visible (ANSI)
100
AcDbEllipse
 10
9.611092395372748
 20
3.807622678970828
 30
0.0
 11
0.0183643853863056
 21
-0.031890270450142
 31
0.0
210
0.0
220
0.0
230
1.0
 40
0.5780931159158105
 41
0.0000000000000069
 42
0.7873318718203868
  0
LINE
  5
3AD
330
6C
100
AcDbEntity
  8
Visible Narrow (ANSI)
100
AcDbLine
 10
9.637113924920415
 20
3.792637876703273
 30
0.0
 11
9.560675681874164
 21
3.748620020042316
 31
0.0
  0
ELLIPSE
  5
3AE
330
6C
100
AcDbEntity
  8
Visible (ANSI)
100
AcDbEllipse
 10
9.534654152326494
 20
3.763604822309871
 30
0.0
 11
0.0183643853863061
 21
-0.0318902704501425
 31
0.0
210
0.0
220
0.0
230
0.9999999999999998
 40
0.5780931159158105
 41
5.499720852205077
 42
7.070517178999955
  0
LINE
  5
3AF
330
6C
100
AcDbEntity
  8
Visible Narrow (ANSI)
100
AcDbLine
 10
9.560675681874162
 20
6.331292264776141
 30
0.0
 11
9.637113924920415
 21
6.3753101214371
 31
0.0
  0
ELLIPSE
  5
3B0
330
6C
100
AcDbEntity
  8
Visible (ANSI)
100
AcDbEllipse
 10
9.611092395372748
 20
6.390294923704654
 30
0.0
 11
-0.0183643853863078
 21
0.031890270450141
 31
0.0
210
0.0
220
0.0
230
1.0
 40
0.5780931159158106
 41
3.928924525409873
 42
5.499720852204796
  0
ELLIPSE
  5
3B1
330
6C
100
AcDbEntity
  8
Visible (ANSI)
100
AcDbEllipse
 10
9.180110812239506
 20
6.550444997939147
 30
0.0
 11
-0.0183643853863059
 21
0.0318902704501421
 31
0.0
210
0.0
220
0.0
230
0.9999999999999998
 40
0.5780931159158106
 41
5.499720852204968
 42
7.070517178999905
  0
LINE
  5
3B2
330
6C
100
AcDbEntity
  8
Visible Narrow (ANSI)
100
AcDbLine
 10
9.180110812239506
 20
6.580530732133349
 30
0.0
 11
9.256549055285759
 21
6.624548588794307
 31
0.0
  0
ELLIPSE
  5
3B3
330
6C
100
AcDbEntity
  8
Visible (ANSI)
100
AcDbEllipse
 10
9.256549055285759
 20
6.594462854600106
 30
0.0
 11
-0.0183643853863048
 21
0.0318902704501384
 31
0.0
210
0.0
220
0.0
230
1.0
 40
0.5780931159158106
 41
5.499720852204792
 42
6.283185307179428
  0
LINE
  5
3B4
330
6C
100
AcDbEntity
  8
Visible Narrow (ANSI)
100
AcDbLine
 10
9.611092395372748
 20
6.420380657898861
 30
0.0
 11
9.534654152326494
 21
6.376362801237902
 31
0.0
  0
ELLIPSE
  5
3B5
330
6C
100
AcDbEntity
  8
Visible (ANSI)
100
AcDbEllipse
 10
9.534654152326494
 20
6.346277067043697
 30
0.0
 11
0.0183643853863039
 21
-0.031890270450143
 31
0.0
210
0.0
220
0.0
230
0.9999999999999998
 40
0.5780931159158106
 41
0.7873318718205633
 42
2.358128198615457
  0
LINE
  5
3B6
330
6C
100
AcDbEntity
  8
Visible (ANSI)
100
AcDbLine
 10
9.553018537712802
 20
3.731714551859729
 30
0.0
 11
9.629456780759056
 21
3.775732408520687
 31
0.0
  0
LINE
  5
3B7
330
6C
100
AcDbEntity
  8
Visible (ANSI)
100
AcDbLine
 10
9.161746426853198
 20
6.582335268389287
 30
0.0
 11
9.238184669899457
 21
6.626353125050244
 31
0.0
  0
LINE
  5
3B8
330
6C
100
AcDbEntity
  8
Visible (ANSI)
100
AcDbLine
 10
9.180110812239506
 20
3.937687019011111
 30
0.0
 11
9.534654152326494
 21
3.733519088115667
 31
0.0
  0
LINE
  5
3B9
330
6C
100
AcDbEntity
  8
Visible (ANSI)
100
AcDbLine
 10
9.637113924920415
 20
3.792637876703273
 30
0.0
 11
9.637113924920415
 21
6.3753101214371
 31
0.0
  0
LINE
  5
3BA
330
6C
100
AcDbEntity
  8
Visible (ANSI)
100
AcDbLine
 10
9.560675681874164
 20
3.748620020042316
 30
0.0
 11
9.560675681874162
 21
6.331292264776141
 31
0.0
  0
LINE
  5
3BB
330
6C
100
AcDbEntity
  8
Visible (ANSI)
100
AcDbLine
 10
9.611092395372748
 20
6.420380657898861
 30
0.0
 11
9.586697211421807
 21
6.434428910024695
 31
0.0
  0
LINE
  5
3BC
330
6C
100
AcDbEntity
  8
Visible (ANSI)
100
AcDbLine
 10
9.154089282691836
 20
6.565429800206699
 30
0.0
 11
9.154089282691836
 21
5.3977272417941
 31
0.0
  0
LINE
  5
3BD
330
6C
100
AcDbEntity
  8
Visible (ANSI)
100
AcDbLine
 10
9.534654152326494
 20
6.376362801237902
 30
0.0
 11
9.180110812239506
 21
6.580530732133349
 31
0.0
  0
LINE
  5
3BE
330
6C
100
AcDbEntity
  8
Visible (ANSI)
100
AcDbLine
 10
9.154089282691836
 20
4.090878162733298
 30
0.0
 11
9.154089282691836
 21
3.982757555472873
 31
0.0
  0
LINE
  5
3BF
330
6C
100
AcDbEntity
  8
Visible (ANSI)
100
AcDbLine
 10
9.230527525738091
 20
4.134896019394258
 30
0.0
 11
9.507819449980459
 21
3.975214220230603
 31
0.0
  0
LINE
  5
3C0
330
6C
100
AcDbEntity
  8
Visible (ANSI)
100
AcDbLine
 10
9.507819449980459
 20
5.163941851775309
 30
0.0
 11
9.507819449980459
 21
3.91726424110292
 31
0.0
  0
LINE
  5
3C1
330
6C
100
AcDbEntity
  8
Visible (ANSI)
100
AcDbLine
 10
9.154089282691836
 20
5.3977272417941
 30
0.0
 11
9.481797920432793
 21
5.209012388237071
 31
0.0
  0
LINE
  5
3C2
330
6C
100
AcDbEntity
  8
Visible (ANSI)
100
AcDbLine
 10
9.154089282691836
 20
4.090878162733298
 30
0.0
 11
9.230527525738091
 21
4.134896019394258
 31
0.0
  0
LINE
  5
3C3
330
6C
100
AcDbEntity
  8
Visible (ANSI)
100
AcDbLine
 10
9.481797920432793
 20
3.902163309176271
 30
0.0
 11
9.154089282691836
 21
4.090878162733298
 31
0.0
  0
LINE
  5
3C4
330
6C
100
AcDbEntity
  8
Visible (ANSI)
100
AcDbLine
 10
9.230527525738091
 20
6.688422709127446
 30
0.0
 11
9.230527525738091
 21
6.62194366898879
 31
0.0
  0
LINE
  5
3C5
330
6C
100
AcDbEntity
  8
Visible (ANSI)
100
AcDbLine
 10
9.230527525738091
 20
6.688422709127446
 30
0.0
 11
9.588323557018432
 21
6.894463740306397
 31
0.0
  0
LINE
  5
3C6
330
6C
100
AcDbEntity
  8
Visible (ANSI)
100
AcDbLine
 10
9.586697211421807
 20
6.434428910024695
 30
0.0
 11
9.256549055285759
 21
6.624548588794307
 31
0.0
  0
LINE
  5
3C7
330
6C
100
AcDbEntity
  8
Visible (ANSI)
100
AcDbLine
 10
10.01523927615985
 20
6.645483063012957
 30
0.0
 11
10.01523927615985
 21
6.648303600593664
 31
0.0
  0
LINE
  5
3C8
330
6C
100
AcDbEntity
  8
Visible (ANSI)
100
AcDbLine
 10
9.586697211421807
 20
6.483318228090277
 30
0.0
 11
9.944493242702147
 21
6.689359259269231
 31
0.0
  0
LINE
  5
3C9
330
6C
100
AcDbEntity
  8
Visible (ANSI)
100
AcDbLine
 10
9.586697211421807
 20
6.434428910024695
 30
0.0
 11
9.586697211421807
 21
6.483318228090277
 31
0.0
  0
LINE
  5
3CA
330
6C
100
AcDbEntity
  8
Visible (ANSI)
100
AcDbLine
 10
9.637113924920415
 20
6.345939565221986
 30
0.0
 11
9.944493242702147
 21
6.52294754200753
 31
0.0
  0
LINE
  5
3CB
330
6C
100
AcDbEntity
  8
Visible (ANSI)
100
AcDbLine
 10
9.586697211421807
 20
6.483318228090277
 30
0.0
 11
9.230527525738091
 21
6.688422709127446
 31
0.0
  0
ELLIPSE
  5
3CC
330
6C
100
AcDbEntity
  8
Visible (ANSI)
100
AcDbEllipse
 10
9.588323557018432
 20
6.812668150465902
 30
0.0
 11
0.0499281727689973
 21
0.0867016727863371
 31
0.0
210
0.0
220
0.0
230
1.0
 40
0.5780931159156393
 41
0.0000000000000012
 42
0.7834644549744163
  0
ELLIPSE
  5
3CD
330
6C
100
AcDbEntity
  8
Visible (ANSI)
100
AcDbEllipse
 10
9.944493242702147
 20
6.607563669428733
 30
0.0
 11
0.0499281727689972
 21
0.0867016727863372
 31
0.0
210
0.0
220
0.0
230
1.0
 40
0.5780931159156393
 41
5.495853435359086
 42
7.066649762154001
  0
LINE
  5
3CE
330
6C
100
AcDbEntity
  8
Visible Narrow (ANSI)
100
AcDbLine
 10
9.588323557018432
 20
6.894463740306397
 30
0.0
 11
9.944493242702147
 21
6.689359259269231
 31
0.0
  0
LINE
  5
3CF
330
6C
100
AcDbEntity
  8
Visible (ANSI)
100
AcDbLine
 10
9.994421415471146
 20
6.694265342215071
 30
0.0
 11
9.638251729787429
 21
6.899369823252241
 31
0.0
  0
ELLIPSE
  5
3D0
330
6C
100
AcDbEntity
  8
Visible (ANSI)
100
AcDbEllipse
 10
9.97945967303182
 20
4.053488865484061
 30
0.0
 11
-0.0246771428628378
 21
-0.0428525509173852
 31
0.0
210
0.0
220
0.0
230
1.0
 40
0.578093115915639
 41
0.0
 42
6.283185307179585
  0
ELLIPSE
  5
3D1
330
6C
100
AcDbEntity
  8
Visible (ANSI)
100
AcDbEllipse
 10
9.944493242702147
 20
6.607563669428733
 30
0.0
 11
-0.0246209691386606
 21
-0.0427550036693548
 31
0.0
210
0.0
220
0.0
230
0.9999999999999998
 40
0.578093115915639
 41
0.0
 42
6.283185307179585
  0
ELLIPSE
  5
3D2
330
6C
100
AcDbEntity
  8
Visible (ANSI)
100
AcDbEllipse
 10
9.979628116207633
 20
4.059226940619218
 30
0.0
 11
-0.0499281727690027
 21
-0.0867016727863347
 31
0.0
210
0.0
220
0.0
230
0.9999999999999998
 40
0.5780931159156392
 41
0.7834644549746468
 42
2.285240477731445
  0
ELLIPSE
  5
3D3
330
6C
100
AcDbEntity
  8
Visible (ANSI)
100
AcDbEllipse
 10
9.97945967303182
 20
4.053488865484061
 30
0.0
 11
0.0499281727689975
 21
0.0867016727863376
 31
0.0
210
0.0
220
0.0
230
1.0
 40
0.578093115915639
 41
5.495853435359106
 42
7.066649762154001
  0
ELLIPSE
  5
3D4
330
6C
100
AcDbEntity
  8
Visible (ANSI)
100
AcDbEllipse
 10
9.623289987348099
 20
4.258593346521231
 30
0.0
 11
0.0499281727689975
 21
0.0867016727863376
 31
0.0
210
0.0
220
0.0
230
1.0
 40
0.5780931159156397
 41
0.0000000000000062
 42
0.5867968152323067
  0
LINE
  5
3D5
330
6C
100
AcDbEntity
  8
Visible Narrow (ANSI)
100
AcDbLine
 10
9.637113924920418
 20
4.332428260157019
 30
0.0
 11
9.97945967303182
 21
4.135284455324558
 31
0.0
  0
LINE
  5
3D6
330
6C
100
AcDbEntity
  8
Visible (ANSI)
100
AcDbLine
 10
10.02938784580081
 20
4.1401905382704
 30
0.0
 11
9.673218160117098
 21
4.345295019307569
 31
0.0
  0
LINE
  5
3D7
330
6C
100
AcDbEntity
  8
Visible (ANSI)
100
AcDbLine
 10
9.637113924920415
 20
3.938140650491979
 30
0.0
 11
9.97945967303182
 21
4.135284455324558
 31
0.0
  0
LINE
  5
3D8
330
6C
100
AcDbEntity
  8
Visible (ANSI)
100
AcDbLine
 10
9.630318217271256
 20
3.776277158206154
 30
0.0
 11
9.979628116207633
 21
3.977431350778723
 31
0.0
  0
LINE
  5
3D9
330
6C
100
AcDbEntity
  8
Visible (ANSI)
100
AcDbLine
 10
9.248486648755932
 20
4.124554048265001
 30
0.0
 11
9.507819449980459
 21
4.273893876299488
 31
0.0
  0
ELLIPSE
  5
3DA
330
6C
100
AcDbEntity
  8
Visible (ANSI)
100
AcDbEllipse
 10
9.944493242702147
 20
6.604743131848027
 30
0.0
 11
-0.0499281727690027
 21
-0.0867016727863347
 31
0.0
210
0.0
220
0.0
230
0.9999999999999998
 40
0.5780931159156392
 41
0.7834644549746459
 42
2.354260781769542
  0
ELLIPSE
  5
3DB
330
6C
100
AcDbEntity
  8
Visible (ANSI)
100
AcDbEllipse
 10
9.481797920432793
 20
3.932249043370475
 30
0.0
 11
0.0183643853863061
 21
-0.0318902704501425
 31
0.0
210
0.0
220
0.0
230
0.9999999999999996
 40
0.5780931159158106
 41
5.499720852205021
 42
7.070517178999905
  0
LINE
  5
3DC
330
6C
100
AcDbEntity
  8
Visible Narrow (ANSI)
100
AcDbLine
 10
9.507819255379825
 20
3.917147999380781
 30
0.0
 11
9.481797920432793
 21
3.902163309176271
 31
0.0
  0
ELLIPSE
  5
3DD
330
6C
100
AcDbEntity
  8
Visible (ANSI)
100
AcDbEllipse
 10
9.481797920432793
 20
5.178926654042864
 30
0.0
 11
-0.0183643853863081
 21
0.0318902704501415
 31
0.0
210
0.0
220
0.0
230
1.0
 40
0.5780931159158106
 41
3.928924525409922
 42
5.499720852204797
  0
MTEXT
  5
3DE
330
6C
100
AcDbEntity
  8
Symbol (ANSI)
100
AcDbMText
 10
6.766548333722201
 20
8.074698405748197
 30
0.0
 40
0.1000000031914298
 41
2.907860748411163
 71
     1
 72
     1
  1
{\fTahoma|b0|i0;\H0.1000;Rev. A    Minor lettering change    10.3.11   RN }
  7
Note Text (ANSI)
 73
     1
 44
1.0
1001
ACAD
1000
MTEXTBEGIN
1070
    73
1070
     1
1070
    44
1040
1.0
1070
    74
1070
     0
1000
MTEXTEND
  0
MTEXT
  5
3DF
330
6C
100
AcDbEntity
  8
Symbol (ANSI)
100
AcDbMText
 10
10.28114536112264
 20
0.9332349771067139
 30
0.0
 40
0.2400000029661524
 41
0.2030470005170566
 71
     1
 72
     1
  1
{\fTahoma|b1|i0;\H0.2400;E}
  7
Note Text (ANSI)
 73
     1
 44
1.0
1001
ACAD
1000
MTEXTBEGIN
1070
    73
1070
     1
1070
    44
1040
1.0
1070
    74
1070
     0
1000
MTEXTEND
  0
MTEXT
  5
3E0
330
6C
100
AcDbEntity
  8
Symbol (ANSI)
100
AcDbMText
 10
6.776912574630555
 20
7.881024091622118
 30
0.0
 40
0.1000000031914298
 41
3.229140525695776
 71
     1
 72
     1
  1
{\fTahoma|b0|i0;\H0.1000;Rev. B   Radius increased overall    10.5.11   RN}
  7
Note Text (ANSI)
 73
     1
 44
1.0
1001
ACAD
1000
MTEXTBEGIN
1070
    73
1070
     1
1070
    44
1040
1.0
1070
    74
1070
     0
1000
MTEXTEND
  0
DIMENSION
  5
3E1
330
6C
100
AcDbEntity
  8
Dimension (ANSI)
100
AcDbDimension
  2
*D8
 10
3.218655177224154
 20
5.863564393363013
 30
0.0
 11
2.720644555421141
 21
5.863564393363013
 31
0.0
 70
   160
  1
<>
 71
     5
 42
1.700000000000003
  3
Default (ANSI)
100
AcDbAlignedDimension
 13
3.153655177224155
 23
5.863564393363013
 33
0.0
 14
3.218655177224154
 24
5.841321121832781
 34
0.0
 50
180.0
100
AcDbRotatedDimension
1001
ACAD
1000
DSTYLE
1002
{
1070
   289
1070
     1
1070
    73
1070
     0
1070
    74
1070
     0
1070
   271
1070
     2
1070
   144
1040
26.15384615384604
1070
    76
1070
     1
1070
    75
1070
     1
1070
   272
1070
     2
1070
    48
1040
0.0
1070
    47
1040
0.0
1002
}
  0
MTEXT
  5
4C8
330
6C
100
AcDbEntity
  8
Symbol (ANSI)
100
AcDbMText
 10
6.755807800495127
 20
7.720935531989621
 30
0.0
 40
0.1000000031914298
 41
3.256644977359319
 71
     1
 72
     1
  1
{\fTahoma|b0|i0;\H0.1000;Rev. C   Minor dimensioning changes    10.17.11   RN}
  7
Note Text (ANSI)
 73
     1
 44
1.0
1001
ACAD
1000
MTEXTBEGIN
1070
    73
1070
     1
1070
    44
1040
1.0
1070
    74
1070
     0
1000
MTEXTEND
  0
MTEXT
  5
4C9
330
6C
100
AcDbEntity
  8
Symbol (ANSI)
100
AcDbMText
 10
6.753222426253445
 20
7.566832993992358
 30
0.0
 40
0.1000000031914298
 41
3.224392387810654
 71
     1
 72
     1
  1
{\fTahoma|b0|i0;\H0.1000;Rev. D   Minor dimensioning changes   10.17.11   RN}
  7
Note Text (ANSI)
 73
     1
 44
1.0
1001
ACAD
1000
MTEXTBEGIN
1070
    73
1070
     1
1070
    44
1040
1.0
1070
    74
1070
     0
1000
MTEXTEND
  0
DIMENSION
  5
4CA
330
6C
100
AcDbEntity
  8
Dimension (ANSI)
100
AcDbDimension
  2
*D9
 10
1.214680707275812
 20
6.102853417905357
 30
0.0
 11
1.214680707275811
 21
5.311353417905356
 31
0.0
 70
   160
  1
 40.20
 71
     5
 42
1.583
  3
Default (ANSI)
100
AcDbAlignedDimension
 13
2.750655177224154
 23
4.519853417905355
 33
0.0
 14
2.970655177224155
 24
6.102853417905355
 34
0.0
 50
90.0
100
AcDbRotatedDimension
1001
ACAD
1000
DSTYLE
1002
{
1070
   289
1070
     1
1070
   271
1070
     2
1070
   272
1070
     2
1070
    48
1040
0.0
1070
    47
1040
0.0
1002
}
  0
DIMENSION
  5
5B4
330
6C
100
AcDbEntity
  8
Dimension (ANSI)
100
AcDbDimension
  2
*D10
 10
1.214680707275812
 20
7.204853417905356
 30
0.0
 11
1.214680707275811
 21
6.653853417905357
 31
0.0
 70
   160
  1
 28.00
 71
     5
 42
1.102
  3
Default (ANSI)
100
AcDbAlignedDimension
 13
2.970655177224155
 23
6.102853417905355
 33
0.0
 14
2.970655177224155
 24
7.204853417905355
 34
0.0
 50
90.0
100
AcDbRotatedDimension
1001
ACAD
1000
DSTYLE
1002
{
1070
   289
1070
     1
1070
   271
1070
     2
1070
   272
1070
     2
1070
    48
1040
0.0
1070
    47
1040
0.0
1002
}
  0
DIMENSION
  5
69E
330
6C
100
AcDbEntity
  8
Dimension (ANSI)
100
AcDbDimension
  2
*D11
 10
2.938655177224153
 20
7.588721941158357
 30
0.0
 11
2.285644555421141
 21
7.588721941158357
 31
0.0
 70
   160
  1
 5.58
 71
     5
 42
0.2199999999999997
  3
Default (ANSI)
100
AcDbAlignedDimension
 13
2.718655177224154
 23
7.298853417905355
 33
0.0
 14
2.938655177224153
 24
7.172853417905355
 34
0.0
 50
180.0
100
AcDbRotatedDimension
1001
ACAD
1000
DSTYLE
1002
{
1070
   289
1070
     1
1070
    73
1070
     0
1070
    74
1070
     0
1070
   271
1070
     2
1070
   272
1070
     2
1070
    48
1040
0.0
1070
    47
1040
0.0
1002
}
  0
DIMENSION
  5
788
330
6C
100
AcDbEntity
  8
Dimension (ANSI)
100
AcDbDimension
  2
*D12
 10
3.098655177224153
 20
7.876105186155637
 30
0.0
 11
2.505644555421141
 21
7.876105186155637
 31
0.0
 70
   160
  1
 4.06
 71
     5
 42
0.1600000000000001
  3
Default (ANSI)
100
AcDbAlignedDimension
 13
2.938655177224153
 23
7.172853417905355
 33
0.0
 14
3.098655177224153
 24
7.172853417905355
 34
0.0
100
AcDbRotatedDimension
1001
ACAD
1000
DSTYLE
1002
{
1070
   289
1070
     1
1070
    73
1070
     0
1070
    74
1070
     0
1070
   271
1070
     2
1070
   272
1070
     2
1070
    48
1040
0.0
1070
    47
1040
0.0
1002
}
  0
MTEXT
  5
872
330
6C
100
AcDbEntity
  8
Symbol (ANSI)
100
AcDbMText
 10
6.731882425574807
 20
7.406055818171937
 30
0.0
 40
0.1000000031914298
 41
3.792706812460591
 71
     1
 72
     1
  1
{\fTahoma|b0|i0;\H0.1000;Rev. E    Cutouts redrawn & lettering moved    10.26.11    RN }
  7
Note Text (ANSI)
 73
     1
 44
1.0
1001
ACAD
1000
MTEXTBEGIN
1070
    73
1070
     1
1070
    44
1040
1.0
1070
    74
1070
     0
1000
MTEXTEND
  0
ENDSEC
  0
SECTION
  2
OBJECTS
  0
DICTIONARY
  5
C
330
0
100
AcDbDictionary
281
     1
  3
ACAD_CIP_PREVIOUS_PRODUCT_INFO
350
873
  3
ACAD_COLOR
350
63
  3
ACAD_GROUP
350
D
  3
ACAD_LAYOUT
350
62
  3
ACAD_MATERIAL
350
10
  3
ACAD_MLEADERSTYLE
350
66
  3
ACAD_MLINESTYLE
350
5F
  3
ACAD_PLOTSETTINGS
350
61
  3
ACAD_PLOTSTYLENAME
350
E
  3
ACAD_SCALELIST
350
42
  3
ACAD_TABLESTYLE
350
64
  3
ACAD_VISUALSTYLE
350
29
  3
ACDB_RECOMPOSE_DATA
350
954
  3
AcDbVariableDictionary
350
874
  3
DWGPROPS
350
955
  0
DICTIONARY
  5
885
330
14F
100
AcDbDictionary
280
     1
281
     1
  3
ACAD_MLATT
360
921
  3
ACAD_XREC_ROUNDTRIP
360
920
  0
DICTIONARY
  5
888
330
151
100
AcDbDictionary
280
     1
281
     1
  3
ACAD_MLATT
360
923
  3
ACAD_XREC_ROUNDTRIP
360
922
  0
DICTIONARY
  5
88B
330
152
100
AcDbDictionary
280
     1
281
     1
  3
ACAD_MLATT
360
925
  3
ACAD_XREC_ROUNDTRIP
360
924
  0
DICTIONARY
  5
88E
330
153
100
AcDbDictionary
280
     1
281
     1
  3
ACAD_MLATT
360
927
  3
ACAD_XREC_ROUNDTRIP
360
926
  0
DICTIONARY
  5
891
330
154
100
AcDbDictionary
280
     1
281
     1
  3
ACAD_MLATT
360
929
  3
ACAD_XREC_ROUNDTRIP
360
928
  0
DICTIONARY
  5
894
330
155
100
AcDbDictionary
280
     1
281
     1
  3
ACAD_MLATT
360
92B
  3
ACAD_XREC_ROUNDTRIP
360
92A
  0
DICTIONARY
  5
897
330
156
100
AcDbDictionary
280
     1
281
     1
  3
ACAD_MLATT
360
92D
  3
ACAD_XREC_ROUNDTRIP
360
92C
  0
DICTIONARY
  5
89A
330
157
100
AcDbDictionary
280
     1
281
     1
  3
ACAD_MLATT
360
92F
  3
ACAD_XREC_ROUNDTRIP
360
92E
  0
DICTIONARY
  5
89D
330
159
100
AcDbDictionary
280
     1
281
     1
  3
ACAD_MLATT
360
931
  3
ACAD_XREC_ROUNDTRIP
360
930
  0
DICTIONARY
  5
8A0
330
15A
100
AcDbDictionary
280
     1
281
     1
  3
ACAD_MLATT
360
933
  3
ACAD_XREC_ROUNDTRIP
360
932
  0
DICTIONARY
  5
8A3
330
15B
100
AcDbDictionary
280
     1
281
     1
  3
ACAD_MLATT
360
935
  3
ACAD_XREC_ROUNDTRIP
360
934
  0
DICTIONARY
  5
8A6
330
15C
100
AcDbDictionary
280
     1
281
     1
  3
ACAD_MLATT
360
937
  3
ACAD_XREC_ROUNDTRIP
360
936
  0
DICTIONARY
  5
8A9
330
15D
100
AcDbDictionary
280
     1
281
     1
  3
ACAD_MLATT
360
939
  3
ACAD_XREC_ROUNDTRIP
360
938
  0
DICTIONARY
  5
8AC
330
160
100
AcDbDictionary
280
     1
281
     1
  3
ACAD_MLATT
360
93B
  3
ACAD_XREC_ROUNDTRIP
360
93A
  0
DICTIONARY
  5
8AF
330
161
100
AcDbDictionary
280
     1
281
     1
  3
ACAD_MLATT
360
93D
  3
ACAD_XREC_ROUNDTRIP
360
93C
  0
DICTIONARY
  5
8B2
330
162
100
AcDbDictionary
280
     1
281
     1
  3
ACAD_MLATT
360
93F
  3
ACAD_XREC_ROUNDTRIP
360
93E
  0
DICTIONARY
  5
8B5
330
163
100
AcDbDictionary
280
     1
281
     1
  3
ACAD_MLATT
360
941
  3
ACAD_XREC_ROUNDTRIP
360
940
  0
DICTIONARY
  5
8B8
330
164
100
AcDbDictionary
280
     1
281
     1
  3
ACAD_MLATT
360
943
  3
ACAD_XREC_ROUNDTRIP
360
942
  0
DICTIONARY
  5
8BB
330
165
100
AcDbDictionary
280
     1
281
     1
  3
ACAD_MLATT
360
945
  3
ACAD_XREC_ROUNDTRIP
360
944
  0
DICTIONARY
  5
8BE
330
166
100
AcDbDictionary
280
     1
281
     1
  3
ACAD_MLATT
360
947
  3
ACAD_XREC_ROUNDTRIP
360
946
  0
DICTIONARY
  5
8C1
330
167
100
AcDbDictionary
280
     1
281
     1
  3
ACAD_MLATT
360
949
  3
ACAD_XREC_ROUNDTRIP
360
948
  0
DICTIONARY
  5
8C4
330
168
100
AcDbDictionary
280
     1
281
     1
  3
ACAD_MLATT
360
94B
  3
ACAD_XREC_ROUNDTRIP
360
94A
  0
DICTIONARY
  5
8C7
330
169
100
AcDbDictionary
280
     1
281
     1
  3
ACAD_MLATT
360
94D
  3
ACAD_XREC_ROUNDTRIP
360
94C
  0
DICTIONARY
  5
8CA
330
16A
100
AcDbDictionary
280
     1
281
     1
  3
ACAD_MLATT
360
94F
  3
ACAD_XREC_ROUNDTRIP
360
94E
  0
DICTIONARY
  5
8CD
330
16B
100
AcDbDictionary
280
     1
281
     1
  3
ACAD_MLATT
360
951
  3
ACAD_XREC_ROUNDTRIP
360
950
  0
DICTIONARY
  5
8D0
330
16C
100
AcDbDictionary
280
     1
281
     1
  3
ACAD_MLATT
360
953
  3
ACAD_XREC_ROUNDTRIP
360
952
  0
XRECORD
  5
873
102
{ACAD_REACTORS
330
C
102
}
330
C
100
AcDbXrecord
280
     1
300
ACD
300
2012
300
ESME_F_S
  0
DICTIONARY
  5
63
102
{ACAD_REACTORS
330
C
102
}
330
C
100
AcDbDictionary
281
     1
  0
DICTIONARY
  5
D
102
{ACAD_REACTORS
330
C
102
}
330
C
100
AcDbDictionary
281
     1
  0
DICTIONARY
  5
62
102
{ACAD_REACTORS
330
C
102
}
330
C
100
AcDbDictionary
281
     1
  3
Layout1
350
6B
  3
Layout2
350
73
  3
Model
350
6F
  0
DICTIONARY
  5
10
102
{ACAD_REACTORS
330
C
102
}
330
C
100
AcDbDictionary
281
     1
  3
ByBlock
350
19
  3
ByLayer
350
11
  3
Global
350
21
  0
DICTIONARY
  5
66
102
{ACAD_REACTORS
330
C
102
}
330
C
100
AcDbDictionary
281
     1
  3
Standard
350
67
  0
DICTIONARY
  5
5F
102
{ACAD_REACTORS
330
C
102
}
330
C
100
AcDbDictionary
281
     1
  3
Standard
350
60
  0
DICTIONARY
  5
61
102
{ACAD_REACTORS
330
C
102
}
330
C
100
AcDbDictionary
281
     1
  0
ACDBDICTIONARYWDFLT
  5
E
102
{ACAD_REACTORS
330
C
102
}
330
C
100
AcDbDictionary
281
     1
  3
Normal
350
F
100
AcDbDictionaryWithDefault
340
F
  0
DICTIONARY
  5
42
102
{ACAD_REACTORS
330
C
102
}
330
C
100
AcDbDictionary
281
     1
  3
A0
350
43
  3
A1
350
44
  3
A2
350
45
  3
A3
350
46
  3
A4
350
47
  3
A5
350
48
  3
A6
350
49
  3
A7
350
4A
  3
A8
350
4B
  3
A9
350
4C
  3
B0
350
4D
  3
B1
350
4E
  3
B2
350
4F
  3
B3
350
50
  3
B4
350
51
  3
B5
350
52
  3
B6
350
53
  0
DICTIONARY
  5
64
102
{ACAD_REACTORS
330
C
102
}
330
C
100
AcDbDictionary
281
     1
  3
Standard
350
65
  0
DICTIONARY
  5
29
102
{ACAD_REACTORS
330
C
102
}
330
C
100
AcDbDictionary
281
     1
  3
2dWireframe
350
2F
  3
Basic
350
2E
  3
Brighten
350
35
  3
ColorChange
350
39
  3
Conceptual
350
32
  3
Dim
350
34
  3
EdgeColorOff
350
41
  3
Facepattern
350
38
  3
Flat
350
2A
  3
FlatWithEdges
350
2B
  3
Gouraud
350
2C
  3
GouraudWithEdges
350
2D
  3
Hidden
350
31
  3
JitterOff
350
3F
  3
Linepattern
350
37
  3
OverhangOff
350
40
  3
Realistic
350
33
  3
Shaded
350
3E
  3
Shaded with edges
350
3D
  3
Shades of Gray
350
3A
  3
Sketchy
350
3B
  3
Thicken
350
36
  3
Wireframe
350
30
  3
X-Ray
350
3C
  0
XRECORD
  5
954
102
{ACAD_REACTORS
330
C
102
}
330
C
100
AcDbXrecord
280
     1
 90
        1
330
65
330
14F
330
151
330
152
330
153
330
154
330
155
330
156
330
157
330
159
330
15A
330
15B
330
15C
330
15D
330
160
330
161
330
162
330
163
330
164
330
165
330
166
330
167
330
168
330
169
330
16A
330
16B
330
16C
  0
DICTIONARY
  5
874
102
{ACAD_REACTORS
330
C
102
}
330
C
100
AcDbDictionary
281
     1
  3
CANNOSCALE
350
878
  3
CMLEADERSTYLE
350
876
  3
CTABLESTYLE
350
875
  3
DIMASSOC
350
87F
  3
HIDETEXT
350
87E
  3
INDEXCTL
350
87D
  3
LAYEREVAL
350
87A
  3
LAYERNOTIFY
350
87B
  3
LIGHTINGUNITS
350
879
  3
MSLTSCALE
350
877
  3
SORTENTS
350
87C
  3
XCLIPFRAME
350
91B
  0
XRECORD
  5
955
102
{ACAD_REACTORS
330
C
102
}
330
C
100
AcDbXrecord
280
     1
  1
DWGPROPS COOKIE
  2

  3

  4
rnorthrop
  6

  7

  8
rnorthrop
  9

300
Manager=
301
Company=
302
Category=
303
Part Number=UCHOLAfrontPanel
304
Description=
305
Project=
306
Designer=rnorthrop
307
Engineer=
308
Authority=
309
Cost Center=
 40
0.0004396412037037
 41
2455861.507510382
 42
2455861.508871493
  1

 90
       16
300
Vendor=
300
User Status=
300
Design Status=WorkInProgress
300
Checked by=
300
Engr Approved by=
300
Mfg Approved by=
  0
XRECORD
  5
921
102
{ACAD_REACTORS
330
885
102
}
330
885
100
AcDbXrecord
280
     1
 70
     4
 70
     0
 70
     0
 40
1.0
  2
ENG_APPROVED_BY
  1
Embedded Object
 10
5.030010039370077
 20
5.604984125718456
 30
0.0
 40
0.1249999981226883
 41
0.0
 46
0.0
 71
     7
 72
     5
  1

  7
Text Style39
 73
     1
 44
1.0
  0
XRECORD
  5
920
102
{ACAD_REACTORS
330
885
102
}
330
885
100
AcDbXrecord
280
     1
102
ACAD_MATT_HEIGHT
140
0.1249999981226883
  0
XRECORD
  5
923
102
{ACAD_REACTORS
330
888
102
}
330
888
100
AcDbXrecord
280
     1
 70
     4
 70
     0
 70
     0
 40
1.0
  2
MFG_APPROVED_BY
  1
Embedded Object
 10
5.030010039370077
 20
5.979984125718456
 30
0.0
 40
0.1249999981226883
 41
0.0
 46
0.0
 71
     7
 72
     5
  1

  7
Text Style39
 73
     1
 44
1.0
  0
XRECORD
  5
922
102
{ACAD_REACTORS
330
888
102
}
330
888
100
AcDbXrecord
280
     1
102
ACAD_MATT_HEIGHT
140
0.1249999981226883
  0
XRECORD
  5
925
102
{ACAD_REACTORS
330
88B
102
}
330
88B
100
AcDbXrecord
280
     1
 70
     4
 70
     0
 70
     0
 40
1.0
  2
AUTHOR
  1
Embedded Object
 10
5.018592981186835
 20
7.181237762137998
 30
0.0
 40
0.1249999981226883
 41
0.0
 46
0.0
 71
     7
 72
     5
  1
rnorthrop
  7
Text Style39
 73
     1
 44
1.0
  0
XRECORD
  5
924
102
{ACAD_REACTORS
330
88B
102
}
330
88B
100
AcDbXrecord
280
     1
102
ACAD_MATT_HEIGHT
140
0.1249999981226883
  0
XRECORD
  5
927
102
{ACAD_REACTORS
330
88E
102
}
330
88E
100
AcDbXrecord
280
     1
 70
     4
 70
     0
 70
     0
 40
1.0
  2
CHECKED_BY
  1
Embedded Object
 10
5.030010039370077
 20
6.729984125718456
 30
0.0
 40
0.1249999981226883
 41
0.0
 46
0.0
 71
     7
 72
     5
  1

  7
Text Style39
 73
     1
 44
1.0
  0
XRECORD
  5
926
102
{ACAD_REACTORS
330
88E
102
}
330
88E
100
AcDbXrecord
280
     1
102
ACAD_MATT_HEIGHT
140
0.1249999981226883
  0
XRECORD
  5
929
102
{ACAD_REACTORS
330
891
102
}
330
891
100
AcDbXrecord
280
     1
 70
     4
 70
     0
 70
     0
 40
1.0
  2
CREATION_DATE
  1
Embedded Object
 10
6.774388973015214
 20
7.173850253901785
 30
0.0
 40
0.1249999981226883
 41
0.0
 46
0.0
 71
     7
 72
     5
  1
9/30/2011
  7
Text Style39
 73
     1
 44
1.0
  0
XRECORD
  5
928
102
{ACAD_REACTORS
330
891
102
}
330
891
100
AcDbXrecord
280
     1
102
ACAD_MATT_HEIGHT
140
0.1249999981226883
  0
XRECORD
  5
92B
102
{ACAD_REACTORS
330
894
102
}
330
894
100
AcDbXrecord
280
     1
 70
     4
 70
     0
 70
     0
 40
1.0
  2
CHECKED_DATE
  1
Embedded Object
 10
6.780013553149606
 20
6.729984125718458
 30
0.0
 40
0.1249999981226883
 41
0.0
 46
0.0
 71
     7
 72
     5
  1

  7
Text Style39
 73
     1
 44
1.0
  0
XRECORD
  5
92A
102
{ACAD_REACTORS
330
894
102
}
330
894
100
AcDbXrecord
280
     1
102
ACAD_MATT_HEIGHT
140
0.1249999981226883
  0
XRECORD
  5
92D
102
{ACAD_REACTORS
330
897
102
}
330
897
100
AcDbXrecord
280
     1
 70
     4
 70
     0
 70
     0
 40
1.0
  2
MFG_APPROVED_DATE
  1
Embedded Object
 10
6.780013553149606
 20
5.97998412571846
 30
0.0
 40
0.1249999981226883
 41
0.0
 46
0.0
 71
     7
 72
     5
  1

  7
Text Style39
 73
     1
 44
1.0
  0
XRECORD
  5
92C
102
{ACAD_REACTORS
330
897
102
}
330
897
100
AcDbXrecord
280
     1
102
ACAD_MATT_HEIGHT
140
0.1249999981226883
  0
XRECORD
  5
92F
102
{ACAD_REACTORS
330
89A
102
}
330
89A
100
AcDbXrecord
280
     1
 70
     4
 70
     0
 70
     0
 40
1.0
  2
ENG_APPROVAL_DATE
  1
Embedded Object
 10
6.780013553149606
 20
5.60498412571846
 30
0.0
 40
0.1249999981226883
 41
0.0
 46
0.0
 71
     7
 72
     5
  1

  7
Text Style39
 73
     1
 44
1.0
  0
XRECORD
  5
92E
102
{ACAD_REACTORS
330
89A
102
}
330
89A
100
AcDbXrecord
280
     1
102
ACAD_MATT_HEIGHT
140
0.1249999981226883
  0
XRECORD
  5
931
102
{ACAD_REACTORS
330
89D
102
}
330
89D
100
AcDbXrecord
280
     1
 70
     4
 70
     0
 70
     0
 40
1.0
  2
PART_NUMBER
  1
Embedded Object
 10
9.263932135165283
 20
5.293731605935663
 30
0.0
 40
0.1799999963580154
 41
0.0
 46
0.0
 71
     7
 72
     5
  1
UCHOLAfrontPanel
  7
Text Style30
 73
     1
 44
1.0
  0
XRECORD
  5
930
102
{ACAD_REACTORS
330
89D
102
}
330
89D
100
AcDbXrecord
280
     1
102
ACAD_MATT_HEIGHT
140
0.1799999963580154
  0
XRECORD
  5
933
102
{ACAD_REACTORS
330
8A0
102
}
330
8A0
100
AcDbXrecord
280
     1
 70
     4
 70
     0
 70
     0
 40
1.0
  2
TITLE
  1
Embedded Object
 10
7.780010039370075
 20
6.222745944627084
 30
0.0
 40
0.1799999963580154
 41
4.94
 46
0.0
 71
     4
 72
     5
  1

  7
Text Style30
 73
     1
 44
1.0
  0
XRECORD
  5
932
102
{ACAD_REACTORS
330
8A0
102
}
330
8A0
100
AcDbXrecord
280
     1
102
ACAD_MATT_HEIGHT
140
0.1799999963580154
  0
XRECORD
  5
935
102
{ACAD_REACTORS
330
8A3
102
}
330
8A3
100
AcDbXrecord
280
     1
 70
     4
 70
     0
 70
     0
 40
1.0
  2
Sheet_Size
  1
Embedded Object
 10
8.000614472346356
 20
5.374984878671213
 30
0.0
 40
0.1799999963580154
 41
0.4999999999999984
 46
0.0
 71
     5
 72
     5
  1
A
  7
Text Style30
 73
     1
 44
1.0
  0
XRECORD
  5
934
102
{ACAD_REACTORS
330
8A3
102
}
330
8A3
100
AcDbXrecord
280
     1
102
ACAD_MATT_HEIGHT
140
0.1799999963580154
  0
XRECORD
  5
937
102
{ACAD_REACTORS
330
8A6
102
}
330
8A6
100
AcDbXrecord
280
     1
 70
     4
 70
     0
 70
     0
 40
1.0
  2
COMPANY
  1
Embedded Object
 10
10.25001003937007
 20
7.139986013120032
 30
0.0
 40
0.1249999981226883
 41
4.999999999999998
 46
0.0
 71
     5
 72
     5
  1

  7
Text Style39
 73
     1
 44
1.0
  0
XRECORD
  5
936
102
{ACAD_REACTORS
330
8A6
102
}
330
8A6
100
AcDbXrecord
280
     1
102
ACAD_MATT_HEIGHT
140
0.1249999981226883
  0
XRECORD
  5
939
102
{ACAD_REACTORS
330
8A9
102
}
330
8A9
100
AcDbXrecord
280
     1
 70
     4
 70
     0
 70
     0
 40
1.0
  2
REVISION_NUMBER
  1
Embedded Object
 10
12.50001003937008
 20
5.374984878671223
 30
0.0
 40
0.1249999981226883
 41
0.5000000000000014
 46
0.0
 71
     5
 72
     5
  1

  7
Text Style39
 73
     1
 44
1.0
  0
XRECORD
  5
938
102
{ACAD_REACTORS
330
8A9
102
}
330
8A9
100
AcDbXrecord
280
     1
102
ACAD_MATT_HEIGHT
140
0.1249999981226883
  0
XRECORD
  5
93B
102
{ACAD_REACTORS
330
8AC
102
}
330
8AC
100
AcDbXrecord
280
     1
 70
     2
 70
     0
 70
     0
 40
1.0
  2
ENG_APPROVED_BY
  1
Embedded Object
 10
2.900000000000001
 20
1.034999999999997
 30
0.0
 40
0.1249999981226883
 41
0.0
 46
0.0
 71
     7
 72
     5
  1

  7
Text Style39
 73
     1
 44
1.0
  0
XRECORD
  5
93A
102
{ACAD_REACTORS
330
8AC
102
}
330
8AC
100
AcDbXrecord
280
     1
102
ACAD_MATT_HEIGHT
140
0.1249999981226883
  0
XRECORD
  5
93D
102
{ACAD_REACTORS
330
8AF
102
}
330
8AF
100
AcDbXrecord
280
     1
 70
     2
 70
     0
 70
     0
 40
1.0
  2
MFG_APPROVED_BY
  1
Embedded Object
 10
2.900000000000001
 20
1.409999999999996
 30
0.0
 40
0.1249999981226883
 41
0.0
 46
0.0
 71
     7
 72
     5
  1

  7
Text Style39
 73
     1
 44
1.0
  0
XRECORD
  5
93C
102
{ACAD_REACTORS
330
8AF
102
}
330
8AF
100
AcDbXrecord
280
     1
102
ACAD_MATT_HEIGHT
140
0.1249999981226883
  0
XRECORD
  5
93F
102
{ACAD_REACTORS
330
8B2
102
}
330
8B2
100
AcDbXrecord
280
     1
 70
     2
 70
     0
 70
     0
 40
1.0
  2
AUTHOR
  1
Embedded Object
 10
2.888582941816758
 20
2.611253636419538
 30
0.0
 40
0.1249999981226883
 41
0.0
 46
0.0
 71
     7
 72
     5
  1
rnorthrop
  7
Text Style39
 73
     1
 44
1.0
  0
XRECORD
  5
93E
102
{ACAD_REACTORS
330
8B2
102
}
330
8B2
100
AcDbXrecord
280
     1
102
ACAD_MATT_HEIGHT
140
0.1249999981226883
  0
XRECORD
  5
941
102
{ACAD_REACTORS
330
8B5
102
}
330
8B5
100
AcDbXrecord
280
     1
 70
     2
 70
     0
 70
     0
 40
1.0
  2
CHECKED_BY
  1
Embedded Object
 10
2.900000000000001
 20
2.159999999999996
 30
0.0
 40
0.1249999981226883
 41
0.0
 46
0.0
 71
     7
 72
     5
  1

  7
Text Style39
 73
     1
 44
1.0
  0
XRECORD
  5
940
102
{ACAD_REACTORS
330
8B5
102
}
330
8B5
100
AcDbXrecord
280
     1
102
ACAD_MATT_HEIGHT
140
0.1249999981226883
  0
XRECORD
  5
943
102
{ACAD_REACTORS
330
8B8
102
}
330
8B8
100
AcDbXrecord
280
     1
 70
     2
 70
     0
 70
     0
 40
1.0
  2
CREATION_DATE
  1
Embedded Object
 10
4.644378933645136
 20
2.603866128183326
 30
0.0
 40
0.1249999981226883
 41
0.0
 46
0.0
 71
     7
 72
     5
  1
9/30/2011
  7
Text Style39
 73
     1
 44
1.0
  0
XRECORD
  5
942
102
{ACAD_REACTORS
330
8B8
102
}
330
8B8
100
AcDbXrecord
280
     1
102
ACAD_MATT_HEIGHT
140
0.1249999981226883
  0
XRECORD
  5
945
102
{ACAD_REACTORS
330
8BB
102
}
330
8BB
100
AcDbXrecord
280
     1
 70
     2
 70
     0
 70
     0
 40
1.0
  2
CHECKED_DATE
  1
Embedded Object
 10
4.650003513779528
 20
2.16
 30
0.0
 40
0.1249999981226883
 41
0.0
 46
0.0
 71
     7
 72
     5
  1

  7
Text Style39
 73
     1
 44
1.0
  0
XRECORD
  5
944
102
{ACAD_REACTORS
330
8BB
102
}
330
8BB
100
AcDbXrecord
280
     1
102
ACAD_MATT_HEIGHT
140
0.1249999981226883
  0
XRECORD
  5
947
102
{ACAD_REACTORS
330
8BE
102
}
330
8BE
100
AcDbXrecord
280
     1
 70
     2
 70
     0
 70
     0
 40
1.0
  2
MFG_APPROVED_DATE
  1
Embedded Object
 10
4.650003513779528
 20
1.41
 30
0.0
 40
0.1249999981226883
 41
0.0
 46
0.0
 71
     7
 72
     5
  1

  7
Text Style39
 73
     1
 44
1.0
  0
XRECORD
  5
946
102
{ACAD_REACTORS
330
8BE
102
}
330
8BE
100
AcDbXrecord
280
     1
102
ACAD_MATT_HEIGHT
140
0.1249999981226883
  0
XRECORD
  5
949
102
{ACAD_REACTORS
330
8C1
102
}
330
8C1
100
AcDbXrecord
280
     1
 70
     2
 70
     0
 70
     0
 40
1.0
  2
ENG_APPROVAL_DATE
  1
Embedded Object
 10
4.650003513779528
 20
1.035000000000001
 30
0.0
 40
0.1249999981226883
 41
0.0
 46
0.0
 71
     7
 72
     5
  1

  7
Text Style39
 73
     1
 44
1.0
  0
XRECORD
  5
948
102
{ACAD_REACTORS
330
8C1
102
}
330
8C1
100
AcDbXrecord
280
     1
102
ACAD_MATT_HEIGHT
140
0.1249999981226883
  0
XRECORD
  5
94B
102
{ACAD_REACTORS
330
8C4
102
}
330
8C4
100
AcDbXrecord
280
     1
 70
     2
 70
     0
 70
     0
 40
1.0
  2
PART_NUMBER
  1
Embedded Object
 10
7.133922095795209
 20
0.7237474802172045
 30
0.0
 40
0.1799999963580154
 41
0.0
 46
0.0
 71
     7
 72
     5
  1
UCHOLAfrontPanel
  7
Text Style30
 73
     1
 44
1.0
  0
XRECORD
  5
94A
102
{ACAD_REACTORS
330
8C4
102
}
330
8C4
100
AcDbXrecord
280
     1
102
ACAD_MATT_HEIGHT
140
0.1799999963580154
  0
XRECORD
  5
94D
102
{ACAD_REACTORS
330
8C7
102
}
330
8C7
100
AcDbXrecord
280
     1
 70
     2
 70
     0
 70
     0
 40
1.0
  2
TITLE
  1
Embedded Object
 10
5.649999999999998
 20
1.652761818908625
 30
0.0
 40
0.1799999963580154
 41
4.94
 46
0.0
 71
     4
 72
     5
  1

  7
Text Style30
 73
     1
 44
1.0
  0
XRECORD
  5
94C
102
{ACAD_REACTORS
330
8C7
102
}
330
8C7
100
AcDbXrecord
280
     1
102
ACAD_MATT_HEIGHT
140
0.1799999963580154
  0
XRECORD
  5
94F
102
{ACAD_REACTORS
330
8CA
102
}
330
8CA
100
AcDbXrecord
280
     1
 70
     2
 70
     0
 70
     0
 40
1.0
  2
Sheet_Size
  1
Embedded Object
 10
5.870604432976278
 20
0.8050007529527549
 30
0.0
 40
0.1799999963580154
 41
0.4999999999999984
 46
0.0
 71
     5
 72
     5
  1
A
  7
Text Style30
 73
     1
 44
1.0
  0
XRECORD
  5
94E
102
{ACAD_REACTORS
330
8CA
102
}
330
8CA
100
AcDbXrecord
280
     1
102
ACAD_MATT_HEIGHT
140
0.1799999963580154
  0
XRECORD
  5
951
102
{ACAD_REACTORS
330
8CD
102
}
330
8CD
100
AcDbXrecord
280
     1
 70
     2
 70
     0
 70
     0
 40
1.0
  2
COMPANY
  1
Embedded Object
 10
8.119999999999999
 20
2.570001887401573
 30
0.0
 40
0.1249999981226883
 41
4.999999999999998
 46
0.0
 71
     5
 72
     5
  1

  7
Text Style39
 73
     1
 44
1.0
  0
XRECORD
  5
950
102
{ACAD_REACTORS
330
8CD
102
}
330
8CD
100
AcDbXrecord
280
     1
102
ACAD_MATT_HEIGHT
140
0.1249999981226883
  0
XRECORD
  5
953
102
{ACAD_REACTORS
330
8D0
102
}
330
8D0
100
AcDbXrecord
280
     1
 70
     2
 70
     0
 70
     0
 40
1.0
  2
REVISION_NUMBER
  1
Embedded Object
 10
10.37
 20
0.8050007529527638
 30
0.0
 40
0.1249999981226883
 41
0.5000000000000014
 46
0.0
 71
     5
 72
     5
  1

  7
Text Style39
 73
     1
 44
1.0
  0
XRECORD
  5
952
102
{ACAD_REACTORS
330
8D0
102
}
330
8D0
100
AcDbXrecord
280
     1
102
ACAD_MATT_HEIGHT
140
0.1249999981226883
  0
LAYOUT
  5
6B
102
{ACAD_XDICTIONARY
360
987
102
}
102
{ACAD_REACTORS
330
62
102
}
330
62
100
AcDbPlotSettings
  1

  2

  4

  6

 40
0.0
 41
0.0
 42
0.0
 43
0.0
 44
0.0
 45
0.0
 46
0.0
 47
0.0
 48
0.0
 49
0.0
140
0.0
141
0.0
142
1.0
143
1.0
 70
   688
 72
     0
 73
     0
 74
     5
  7

 75
    16
147
1.0
148
0.0
149
0.0
100
AcDbLayout
  1
Layout1
 70
     1
 71
     1
 10
0.0
 20
0.0
 11
11.0
 21
8.5
 12
0.0
 22
0.0
 32
0.0
 14
0.0
 24
0.0
 34
0.0
 15
11.0
 25
8.5
 35
0.0
146
0.0
 13
0.0
 23
0.0
 33
0.0
 16
1.0
 26
0.0
 36
0.0
 17
0.0
 27
1.0
 37
0.0
 76
     0
330
68
  0
LAYOUT
  5
73
102
{ACAD_XDICTIONARY
360
98B
102
}
102
{ACAD_REACTORS
330
62
102
}
330
62
100
AcDbPlotSettings
  1

  2

  4

  6

 40
0.0
 41
0.0
 42
0.0
 43
0.0
 44
0.0
 45
0.0
 46
0.0
 47
0.0
 48
0.0
 49
0.0
140
0.0
141
0.0
142
1.0
143
1.0
 70
   688
 72
     0
 73
     0
 74
     5
  7

 75
    16
147
1.0
148
0.0
149
0.0
100
AcDbLayout
  1
Layout2
 70
     1
 71
     2
 10
0.0
 20
0.0
 11
12.0
 21
9.0
 12
0.0
 22
0.0
 32
0.0
 14
0.0
 24
0.0
 34
0.0
 15
0.0
 25
0.0
 35
0.0
146
0.0
 13
0.0
 23
0.0
 33
0.0
 16
1.0
 26
0.0
 36
0.0
 17
0.0
 27
1.0
 37
0.0
 76
     0
330
70
  0
LAYOUT
  5
6F
102
{ACAD_XDICTIONARY
360
989
102
}
102
{ACAD_REACTORS
330
62
102
}
330
62
100
AcDbPlotSettings
  1

  2

  4

  6

 40
0.0
 41
0.0
 42
0.0
 43
0.0
 44
0.0
 45
0.0
 46
0.0
 47
0.0
 48
0.0
 49
0.0
140
0.0
141
0.0
142
1.0
143
1.0
 70
  1712
 72
     0
 73
     0
 74
     0
  7

 75
     0
147
1.0
148
0.0
149
0.0
100
AcDbLayout
  1
Model
 70
     1
 71
     0
 10
0.0
 20
0.0
 11
12.0
 21
9.0
 12
0.0
 22
0.0
 32
0.0
 14
0.0
 24
0.0
 34
0.0
 15
0.0
 25
0.0
 35
0.0
146
0.0
 13
0.0
 23
0.0
 33
0.0
 16
1.0
 26
0.0
 36
0.0
 17
0.0
 27
1.0
 37
0.0
 76
     0
330
6C
331
57
  0
MATERIAL
  5
19
102
{ACAD_XDICTIONARY
360
1A
102
}
102
{ACAD_REACTORS
330
10
102
}
330
10
100
AcDbMaterial
  1
ByBlock
 72
     0
 43
0.0208333333333333
 43
0.0
 43
0.0
 43
0.0
 43
0.0
 43
0.0208333333333333
 43
0.0
 43
0.0
 43
0.0
 43
0.0
 43
1.0
 43
0.0
 43
0.0
 43
0.0
 43
0.0
 43
1.0
 77
     0
 47
0.0208333333333333
 47
0.0
 47
0.0
 47
0.0
 47
0.0
 47
0.0208333333333333
 47
0.0
 47
0.0
 47
0.0
 47
0.0
 47
1.0
 47
0.0
 47
0.0
 47
0.0
 47
0.0
 47
1.0
171
     0
 49
0.0208333333333333
 49
0.0
 49
0.0
 49
0.0
 49
0.0
 49
0.0208333333333333
 49
0.0
 49
0.0
 49
0.0
 49
0.0
 49
1.0
 49
0.0
 49
0.0
 49
0.0
 49
0.0
 49
1.0
175
     0
142
0.0208333333333333
142
0.0
142
0.0
142
0.0
142
0.0
142
0.0208333333333333
142
0.0
142
0.0
142
0.0
142
0.0
142
1.0
142
0.0
142
0.0
142
0.0
142
0.0
142
1.0
179
     0
144
0.0208333333333333
144
0.0
144
0.0
144
0.0
144
0.0
144
0.0208333333333333
144
0.0
144
0.0
144
0.0
144
0.0
144
1.0
144
0.0
144
0.0
144
0.0
144
0.0
144
1.0
147
0.0208333333333333
147
0.0
147
0.0
147
0.0
147
0.0
147
0.0208333333333333
147
0.0
147
0.0
147
0.0
147
0.0
147
1.0
147
0.0
147
0.0
147
0.0
147
0.0
147
1.0
  0
MATERIAL
  5
11
102
{ACAD_XDICTIONARY
360
12
102
}
102
{ACAD_REACTORS
330
10
102
}
330
10
100
AcDbMaterial
  1
ByLayer
 72
     0
 43
0.0208333333333333
 43
0.0
 43
0.0
 43
0.0
 43
0.0
 43
0.0208333333333333
 43
0.0
 43
0.0
 43
0.0
 43
0.0
 43
1.0
 43
0.0
 43
0.0
 43
0.0
 43
0.0
 43
1.0
 77
     0
 47
0.0208333333333333
 47
0.0
 47
0.0
 47
0.0
 47
0.0
 47
0.0208333333333333
 47
0.0
 47
0.0
 47
0.0
 47
0.0
 47
1.0
 47
0.0
 47
0.0
 47
0.0
 47
0.0
 47
1.0
171
     0
 49
0.0208333333333333
 49
0.0
 49
0.0
 49
0.0
 49
0.0
 49
0.0208333333333333
 49
0.0
 49
0.0
 49
0.0
 49
0.0
 49
1.0
 49
0.0
 49
0.0
 49
0.0
 49
0.0
 49
1.0
175
     0
142
0.0208333333333333
142
0.0
142
0.0
142
0.0
142
0.0
142
0.0208333333333333
142
0.0
142
0.0
142
0.0
142
0.0
142
1.0
142
0.0
142
0.0
142
0.0
142
0.0
142
1.0
179
     0
144
0.0208333333333333
144
0.0
144
0.0
144
0.0
144
0.0
144
0.0208333333333333
144
0.0
144
0.0
144
0.0
144
0.0
144
1.0
144
0.0
144
0.0
144
0.0
144
0.0
144
1.0
147
0.0208333333333333
147
0.0
147
0.0
147
0.0
147
0.0
147
0.0208333333333333
147
0.0
147
0.0
147
0.0
147
0.0
147
1.0
147
0.0
147
0.0
147
0.0
147
0.0
147
1.0
  0
MATERIAL
  5
21
102
{ACAD_XDICTIONARY
360
22
102
}
102
{ACAD_REACTORS
330
10
102
}
330
10
100
AcDbMaterial
  1
Global
 72
     0
 43
0.0208333333333333
 43
0.0
 43
0.0
 43
0.0
 43
0.0
 43
0.0208333333333333
 43
0.0
 43
0.0
 43
0.0
 43
0.0
 43
1.0
 43
0.0
 43
0.0
 43
0.0
 43
0.0
 43
1.0
 77
     0
 47
0.0208333333333333
 47
0.0
 47
0.0
 47
0.0
 47
0.0
 47
0.0208333333333333
 47
0.0
 47
0.0
 47
0.0
 47
0.0
 47
1.0
 47
0.0
 47
0.0
 47
0.0
 47
0.0
 47
1.0
171
     0
 49
0.0208333333333333
 49
0.0
 49
0.0
 49
0.0
 49
0.0
 49
0.0208333333333333
 49
0.0
 49
0.0
 49
0.0
 49
0.0
 49
1.0
 49
0.0
 49
0.0
 49
0.0
 49
0.0
 49
1.0
175
     0
142
0.0208333333333333
142
0.0
142
0.0
142
0.0
142
0.0
142
0.0208333333333333
142
0.0
142
0.0
142
0.0
142
0.0
142
1.0
142
0.0
142
0.0
142
0.0
142
0.0
142
1.0
179
     0
144
0.0208333333333333
144
0.0
144
0.0
144
0.0
144
0.0
144
0.0208333333333333
144
0.0
144
0.0
144
0.0
144
0.0
144
1.0
144
0.0
144
0.0
144
0.0
144
0.0
144
1.0
147
0.0208333333333333
147
0.0
147
0.0
147
0.0
147
0.0
147
0.0208333333333333
147
0.0
147
0.0
147
0.0
147
0.0
147
1.0
147
0.0
147
0.0
147
0.0
147
0.0
147
1.0
  0
MLEADERSTYLE
  5
67
102
{ACAD_XDICTIONARY
360
91E
102
}
102
{ACAD_REACTORS
330
66
102
}
330
66
100
AcDbMLeaderStyle
170
     2
171
     1
172
     0
 90
        2
 40
0.0
 41
0.0
173
     1
 91
-1056964608
340
5B
 92
       -2
290
     1
 42
0.09
291
     1
 43
0.36
  3
Standard
 44
0.18
300

342
55
174
     1
178
     6
175
     1
176
     0
 93
-1056964608
 45
0.18
292
     0
297
     0
 46
0.18
 94
-1056964608
 47
1.0
 49
1.0
140
1.0
293
     1
141
0.0
294
     1
177
     0
142
1.0
295
     0
296
     0
143
0.125
1001
ACAD_MLEADERVER
1070
     2
  0
MLINESTYLE
  5
60
102
{ACAD_REACTORS
330
5F
102
}
330
5F
100
AcDbMlineStyle
  2
STANDARD
 70
     0
  3

 62
   256
 51
90.0
 52
90.0
 71
     2
 49
0.5
 62
   256
  6
BYLAYER
 49
-0.5
 62
   256
  6
BYLAYER
  0
ACDBPLACEHOLDER
  5
F
102
{ACAD_REACTORS
330
E
102
}
330
E
  0
SCALE
  5
43
102
{ACAD_REACTORS
330
42
102
}
330
42
100
AcDbScale
 70
     0
300
1:1
140
1.0
141
1.0
290
     1
  0
SCALE
  5
44
102
{ACAD_REACTORS
330
42
102
}
330
42
100
AcDbScale
 70
     0
300
1/128" = 1'-0"
140
0.0078125
141
12.0
290
     0
  0
SCALE
  5
45
102
{ACAD_REACTORS
330
42
102
}
330
42
100
AcDbScale
 70
     0
300
1/64" = 1'-0"
140
0.015625
141
12.0
290
     0
  0
SCALE
  5
46
102
{ACAD_REACTORS
330
42
102
}
330
42
100
AcDbScale
 70
     0
300
1/32" = 1'-0"
140
0.03125
141
12.0
290
     0
  0
SCALE
  5
47
102
{ACAD_REACTORS
330
42
102
}
330
42
100
AcDbScale
 70
     0
300
1/16" = 1'-0"
140
0.0625
141
12.0
290
     0
  0
SCALE
  5
48
102
{ACAD_REACTORS
330
42
102
}
330
42
100
AcDbScale
 70
     0
300
3/32" = 1'-0"
140
0.09375
141
12.0
290
     0
  0
SCALE
  5
49
102
{ACAD_REACTORS
330
42
102
}
330
42
100
AcDbScale
 70
     0
300
1/8" = 1'-0"
140
0.125
141
12.0
290
     0
  0
SCALE
  5
4A
102
{ACAD_REACTORS
330
42
102
}
330
42
100
AcDbScale
 70
     0
300
3/16" = 1'-0"
140
0.1875
141
12.0
290
     0
  0
SCALE
  5
4B
102
{ACAD_REACTORS
330
42
102
}
330
42
100
AcDbScale
 70
     0
300
1/4" = 1'-0"
140
0.25
141
12.0
290
     0
  0
SCALE
  5
4C
102
{ACAD_REACTORS
330
42
102
}
330
42
100
AcDbScale
 70
     0
300
3/8" = 1'-0"
140
0.375
141
12.0
290
     0
  0
SCALE
  5
4D
102
{ACAD_REACTORS
330
42
102
}
330
42
100
AcDbScale
 70
     0
300
1/2" = 1'-0"
140
0.5
141
12.0
290
     0
  0
SCALE
  5
4E
102
{ACAD_REACTORS
330
42
102
}
330
42
100
AcDbScale
 70
     0
300
3/4" = 1'-0"
140
0.75
141
12.0
290
     0
  0
SCALE
  5
4F
102
{ACAD_REACTORS
330
42
102
}
330
42
100
AcDbScale
 70
     0
300
1" = 1'-0"
140
1.0
141
12.0
290
     0
  0
SCALE
  5
50
102
{ACAD_REACTORS
330
42
102
}
330
42
100
AcDbScale
 70
     0
300
1-1/2" = 1'-0"
140
1.5
141
12.0
290
     0
  0
SCALE
  5
51
102
{ACAD_REACTORS
330
42
102
}
330
42
100
AcDbScale
 70
     0
300
3" = 1'-0"
140
3.0
141
12.0
290
     0
  0
SCALE
  5
52
102
{ACAD_REACTORS
330
42
102
}
330
42
100
AcDbScale
 70
     0
300
6" = 1'-0"
140
6.0
141
12.0
290
     0
  0
SCALE
  5
53
102
{ACAD_REACTORS
330
42
102
}
330
42
100
AcDbScale
 70
     0
300
1'-0" = 1'-0"
140
12.0
141
12.0
290
     0
  0
TABLESTYLE
  5
65
102
{ACAD_XDICTIONARY
360
881
102
}
102
{ACAD_REACTORS
330
64
102
}
330
64
100
AcDbTableStyle
  3
Standard
 70
     0
 71
     0
 40
0.06
 41
0.06
280
     0
281
     0
  7
Standard
140
0.18
170
     2
 62
     0
 63
     7
283
     0
274
    -2
284
     1
 64
     0
275
    -2
285
     1
 65
     0
276
    -2
286
     1
 66
     0
277
    -2
287
     1
 67
     0
278
    -2
288
     1
 68
     0
279
    -2
289
     1
 69
     0
  7
Standard
140
0.25
170
     5
 62
     0
 63
     7
283
     0
274
    -2
284
     1
 64
     0
275
    -2
285
     1
 65
     0
276
    -2
286
     1
 66
     0
277
    -2
287
     1
 67
     0
278
    -2
288
     1
 68
     0
279
    -2
289
     1
 69
     0
  7
Standard
140
0.18
170
     5
 62
     0
 63
     7
283
     0
274
    -2
284
     1
 64
     0
275
    -2
285
     1
 65
     0
276
    -2
286
     1
 66
     0
277
    -2
287
     1
 67
     0
278
    -2
288
     1
 68
     0
279
    -2
289
     1
 69
     0
  0
VISUALSTYLE
  5
2F
102
{ACAD_XDICTIONARY
360
960
102
}
102
{ACAD_REACTORS
330
29
102
}
330
29
100
AcDbVisualStyle
  2

 70
     4
 71
     0
 72
     2
 73
     0
 90
        0
 40
-0.6
 41
-30.0
 62
     5
 63
     7
 74
     1
 91
        4
 64
     7
 65
   257
 75
     1
175
     1
 42
1.0
 92
        0
 66
   257
 43
1.0
 76
     1
 77
     6
 78
     2
 67
     7
 79
     5
170
     0
171
     0
290
     0
174
     0
 93
        1
 44
0.0
173
     0
291
     0
 45
0.0
1001
ACAD
1000
AcDbSavedByObjectVersion
1070
     0
  0
VISUALSTYLE
  5
2E
102
{ACAD_XDICTIONARY
360
95E
102
}
102
{ACAD_REACTORS
330
29
102
}
330
29
100
AcDbVisualStyle
  2

 70
     7
 71
     1
 72
     0
 73
     1
 90
        0
 40
-0.6
 41
-30.0
 62
     5
 63
     7
 74
     0
 91
        4
 64
     7
 65
   257
 75
     1
175
     1
 42
1.0
 92
        8
 66
     7
 43
1.0
 76
     1
 77
     6
 78
     2
 67
     7
 79
     5
170
     0
171
     0
290
     0
174
     0
 93
        1
 44
0.0
173
     0
291
     1
 45
0.0
1001
ACAD
1000
AcDbSavedByObjectVersion
1070
     0
  0
VISUALSTYLE
  5
35
102
{ACAD_XDICTIONARY
360
96C
102
}
102
{ACAD_REACTORS
330
29
102
}
330
29
100
AcDbVisualStyle
  2

 70
    12
 71
     2
 72
     2
 73
     0
 90
        0
 40
-0.6
 41
-30.0
 62
     5
 63
     7
 74
     1
 91
        4
 64
     7
 65
   257
 75
     1
175
     1
 42
1.0
 92
        8
 66
     7
 43
1.0
 76
     1
 77
     6
 78
     2
 67
     7
 79
     5
170
     0
171
     0
290
     0
174
     0
 93
        1
 44
50.0
173
     0
291
     1
 45
0.0
1001
ACAD
1000
AcDbSavedByObjectVersion
1070
     0
  0
VISUALSTYLE
  5
39
102
{ACAD_XDICTIONARY
360
974
102
}
102
{ACAD_REACTORS
330
29
102
}
330
29
100
AcDbVisualStyle
  2

 70
    16
 71
     2
 72
     2
 73
     3
 90
        0
 40
-0.6
 41
-30.0
 62
     5
 63
     8
 74
     1
 91
        4
 64
     7
 65
   257
 75
     1
175
     1
 42
1.0
 92
        8
 66
     8
 43
1.0
 76
     1
 77
     6
 78
     2
 67
     7
 79
     5
170
     0
171
     0
290
     0
174
     0
 93
        1
 44
0.0
173
     0
291
     1
 45
0.0
1001
ACAD
1000
AcDbSavedByObjectVersion
1070
     0
  0
VISUALSTYLE
  5
32
102
{ACAD_XDICTIONARY
360
966
102
}
102
{ACAD_REACTORS
330
29
102
}
330
29
100
AcDbVisualStyle
  2

 70
     9
 71
     3
 72
     2
 73
     0
 90
        0
 40
-0.6
 41
-30.0
 62
     5
 63
     7
 74
     2
 91
        2
 64
     7
 65
   257
 75
     1
175
     1
 42
179.0
 92
        8
 66
     7
 43
1.0
 76
     1
 77
     6
 78
     2
 67
     7
 79
     3
170
     0
171
     0
290
     0
174
     0
 93
        1
 44
0.0
173
     0
291
     0
 45
0.0
1001
ACAD
1000
AcDbSavedByObjectVersion
1070
     0
  0
VISUALSTYLE
  5
34
102
{ACAD_XDICTIONARY
360
96A
102
}
102
{ACAD_REACTORS
330
29
102
}
330
29
100
AcDbVisualStyle
  2

 70
    11
 71
     2
 72
     2
 73
     0
 90
        0
 40
-0.6
 41
-30.0
 62
     5
 63
     7
 74
     1
 91
        4
 64
     7
 65
   257
 75
     1
175
     1
 42
1.0
 92
        8
 66
     7
 43
1.0
 76
     1
 77
     6
 78
     2
 67
     7
 79
     5
170
     0
171
     0
290
     0
174
     0
 93
        1
 44
-50.0
173
     0
291
     1
 45
0.0
1001
ACAD
1000
AcDbSavedByObjectVersion
1070
     0
  0
VISUALSTYLE
  5
41
102
{ACAD_XDICTIONARY
360
984
102
}
102
{ACAD_REACTORS
330
29
102
}
330
29
100
AcDbVisualStyle
  2

 70
    22
 71
     2
 72
     2
 73
     0
 90
        0
 40
-0.6
 41
-30.0
 62
     5
 63
     7
 74
     1
 91
        4
 64
     7
 65
   257
 75
     1
175
     1
 42
1.0
 92
        8
 66
     7
 43
1.0
 76
     1
 77
     6
 78
     2
 67
     7
 79
     5
170
     0
171
     0
290
     0
174
     0
 93
        1
 44
0.0
173
     0
291
     1
 45
0.0
1001
ACAD
1000
AcDbSavedByObjectVersion
1070
     0
  0
VISUALSTYLE
  5
38
102
{ACAD_XDICTIONARY
360
972
102
}
102
{ACAD_REACTORS
330
29
102
}
330
29
100
AcDbVisualStyle
  2

 70
    15
 71
     2
 72
     2
 73
     0
 90
        0
 40
-0.6
 41
-30.0
 62
     5
 63
     7
 74
     1
 91
        4
 64
     7
 65
   257
 75
     1
175
     1
 42
1.0
 92
        8
 66
     7
 43
1.0
 76
     1
 77
     6
 78
     2
 67
     7
 79
     5
170
     0
171
     0
290
     0
174
     0
 93
        1
 44
0.0
173
     0
291
     1
 45
0.0
1001
ACAD
1000
AcDbSavedByObjectVersion
1070
     0
  0
VISUALSTYLE
  5
2A
102
{ACAD_XDICTIONARY
360
956
102
}
102
{ACAD_REACTORS
330
29
102
}
330
29
100
AcDbVisualStyle
  2

 70
     0
 71
     2
 72
     1
 73
     1
 90
        2
 40
-0.6
 41
30.0
 62
     5
 63
     7
 74
     0
 91
        0
 64
     7
 65
   257
 75
     1
175
     1
 42
1.0
 92
        8
 66
     7
 43
1.0
 76
     1
 77
     6
 78
     2
 67
     7
 79
     5
170
     0
171
     0
290
     0
174
     0
 93
       13
 44
0.0
173
     0
291
     1
 45
0.0
1001
ACAD
1000
AcDbSavedByObjectVersion
1070
     0
  0
VISUALSTYLE
  5
2B
102
{ACAD_XDICTIONARY
360
958
102
}
102
{ACAD_REACTORS
330
29
102
}
330
29
100
AcDbVisualStyle
  2

 70
     1
 71
     2
 72
     1
 73
     1
 90
        2
 40
-0.6
 41
30.0
 62
     5
 63
     7
 74
     1
 91
        0
 64
     7
 65
   257
 75
     1
175
     1
 42
1.0
 92
        0
 66
   257
 43
1.0
 76
     1
 77
     6
 78
     2
 67
     7
 79
     5
170
     0
171
     0
290
     0
174
     0
 93
       13
 44
0.0
173
     0
291
     1
 45
0.0
1001
ACAD
1000
AcDbSavedByObjectVersion
1070
     0
  0
VISUALSTYLE
  5
2C
102
{ACAD_XDICTIONARY
360
95A
102
}
102
{ACAD_REACTORS
330
29
102
}
330
29
100
AcDbVisualStyle
  2

 70
     2
 71
     2
 72
     2
 73
     1
 90
        2
 40
-0.6
 41
30.0
 62
     5
 63
     7
 74
     0
 91
        0
 64
     7
 65
   257
 75
     1
175
     1
 42
1.0
 92
        0
 66
     7
 43
1.0
 76
     1
 77
     6
 78
     2
 67
     7
 79
     5
170
     0
171
     0
290
     0
174
     0
 93
       13
 44
0.0
173
     0
291
     1
 45
0.0
1001
ACAD
1000
AcDbSavedByObjectVersion
1070
     0
  0
VISUALSTYLE
  5
2D
102
{ACAD_XDICTIONARY
360
95C
102
}
102
{ACAD_REACTORS
330
29
102
}
330
29
100
AcDbVisualStyle
  2

 70
     3
 71
     2
 72
     2
 73
     1
 90
        2
 40
-0.6
 41
30.0
 62
     5
 63
     7
 74
     1
 91
        0
 64
     7
 65
   257
 75
     1
175
     1
 42
1.0
 92
        0
 66
   257
 43
1.0
 76
     1
 77
     6
 78
     2
 67
     7
 79
     5
170
     0
171
     0
290
     0
174
     0
 93
       13
 44
0.0
173
     0
291
     1
 45
0.0
1001
ACAD
1000
AcDbSavedByObjectVersion
1070
     0
  0
VISUALSTYLE
  5
31
102
{ACAD_XDICTIONARY
360
964
102
}
102
{ACAD_REACTORS
330
29
102
}
330
29
100
AcDbVisualStyle
  2

 70
     6
 71
     1
 72
     2
 73
     2
 90
        0
 40
-0.6
 41
-30.0
 62
     5
 63
     7
 74
     2
 91
        2
 64
     7
 65
   257
 75
     2
175
     1
 42
40.0
 92
        0
 66
   257
 43
1.0
 76
     1
 77
     6
 78
     2
 67
     7
 79
     3
170
     0
171
     0
290
     0
174
     0
 93
        1
 44
0.0
173
     0
291
     0
 45
0.0
1001
ACAD
1000
AcDbSavedByObjectVersion
1070
     0
  0
VISUALSTYLE
  5
3F
102
{ACAD_XDICTIONARY
360
980
102
}
102
{ACAD_REACTORS
330
29
102
}
330
29
100
AcDbVisualStyle
  2

 70
    20
 71
     2
 72
     2
 73
     0
 90
        0
 40
-0.6
 41
-30.0
 62
     5
 63
     7
 74
     1
 91
        4
 64
     7
 65
   257
 75
     1
175
     1
 42
1.0
 92
       10
 66
     7
 43
1.0
 76
     1
 77
     6
 78
     2
 67
     7
 79
     5
170
     0
171
     0
290
     0
174
     0
 93
        1
 44
0.0
173
     0
291
     1
 45
0.0
1001
ACAD
1000
AcDbSavedByObjectVersion
1070
     0
  0
VISUALSTYLE
  5
37
102
{ACAD_XDICTIONARY
360
970
102
}
102
{ACAD_REACTORS
330
29
102
}
330
29
100
AcDbVisualStyle
  2

 70
    14
 71
     2
 72
     2
 73
     0
 90
        0
 40
-0.6
 41
-30.0
 62
     5
 63
     7
 74
     1
 91
        4
 64
     7
 65
   257
 75
     7
175
     7
 42
1.0
 92
        8
 66
     7
 43
1.0
 76
     1
 77
     6
 78
     2
 67
     7
 79
     5
170
     0
171
     0
290
     0
174
     0
 93
        1
 44
0.0
173
     0
291
     1
 45
0.0
1001
ACAD
1000
AcDbSavedByObjectVersion
1070
     0
  0
VISUALSTYLE
  5
40
102
{ACAD_XDICTIONARY
360
982
102
}
102
{ACAD_REACTORS
330
29
102
}
330
29
100
AcDbVisualStyle
  2

 70
    21
 71
     2
 72
     2
 73
     0
 90
        0
 40
-0.6
 41
-30.0
 62
     5
 63
     7
 74
     1
 91
        4
 64
     7
 65
   257
 75
     1
175
     1
 42
1.0
 92
        9
 66
     7
 43
1.0
 76
     1
 77
     6
 78
     2
 67
     7
 79
     5
170
     0
171
     0
290
     0
174
     0
 93
        1
 44
0.0
173
     0
291
     1
 45
0.0
1001
ACAD
1000
AcDbSavedByObjectVersion
1070
     0
  0
VISUALSTYLE
  5
33
102
{ACAD_XDICTIONARY
360
968
102
}
102
{ACAD_REACTORS
330
29
102
}
330
29
100
AcDbVisualStyle
  2

 70
     8
 71
     2
 72
     3
 73
     0
 90
        2
 40
-0.6
 41
30.0
 62
     5
 63
     7
 74
     0
 91
        0
 64
     7
 65
   257
 75
     1
175
     1
 42
1.0
 92
        8
 66
   257
 43
1.0
 76
     1
 77
     6
 78
     2
 67
     7
 79
     3
170
     0
171
     0
290
     0
174
     0
 93
       13
 44
0.0
173
     0
291
     0
 45
0.0
1001
ACAD
1000
AcDbSavedByObjectVersion
1070
     0
  0
VISUALSTYLE
  5
3E
102
{ACAD_XDICTIONARY
360
97E
102
}
102
{ACAD_REACTORS
330
29
102
}
330
29
100
AcDbVisualStyle
  2

 70
    27
 71
     2
 72
     2
 73
     1
 90
        2
 40
-0.6
 41
30.0
 62
     5
 63
     7
 74
     0
 91
        4
 64
     7
 65
   257
 75
     1
175
     1
 42
1.0
 92
        8
 66
   257
 43
1.0
 76
     1
 77
     6
 78
     2
 67
     8
 79
     3
170
     0
171
     0
290
     0
174
     0
 93
        5
 44
0.0
173
     0
291
     0
 45
0.0
1001
ACAD
1000
AcDbSavedByObjectVersion
1070
     0
  0
VISUALSTYLE
  5
3D
102
{ACAD_XDICTIONARY
360
97C
102
}
102
{ACAD_REACTORS
330
29
102
}
330
29
100
AcDbVisualStyle
  2

 70
    26
 71
     2
 72
     2
 73
     1
 90
        2
 40
-0.6
 41
30.0
 62
     5
 63
     7
 74
     1
 91
       10
 64
     7
 65
   257
 75
     2
175
     1
 42
1.0
 92
        8
 66
   257
 43
1.0
 76
     1
 77
     6
 78
     2
 67
     7
 79
     3
170
     0
171
     0
290
     0
174
     0
 93
        5
 44
0.0
173
     0
291
     0
 45
0.0
1001
ACAD
1000
AcDbSavedByObjectVersion
1070
     0
  0
VISUALSTYLE
  5
3A
102
{ACAD_XDICTIONARY
360
976
102
}
102
{ACAD_REACTORS
330
29
102
}
330
29
100
AcDbVisualStyle
  2

 70
    23
 71
     2
 72
     2
 73
     3
 90
        0
 40
-0.6
 41
-30.0
 62
     5
 63
     7
 74
     2
 91
        2
 64
     7
 65
     7
 75
     1
175
     1
 42
40.0
 92
        8
 66
     7
 43
1.0
 76
     1
 77
     6
 78
     2
 67
     7
 79
     3
170
     0
171
     0
290
     0
174
     0
 93
        1
 44
0.0
173
     0
291
     0
 45
0.0
1001
ACAD
1000
AcDbSavedByObjectVersion
1070
     0
  0
VISUALSTYLE
  5
3B
102
{ACAD_XDICTIONARY
360
978
102
}
102
{ACAD_REACTORS
330
29
102
}
330
29
100
AcDbVisualStyle
  2

 70
    24
 71
     1
 72
     2
 73
     2
 90
        0
 40
-0.6
 41
-30.0
 62
     5
 63
     7
 74
     2
 91
        2
 64
     7
 65
     7
 75
     1
175
     1
 42
40.0
 92
       11
 66
     7
 43
1.0
 76
     1
 77
     6
 78
     2
 67
     7
 79
     6
170
     0
171
     0
290
     0
174
     0
 93
        1
 44
0.0
173
     0
291
     0
 45
0.0
1001
ACAD
1000
AcDbSavedByObjectVersion
1070
     0
  0
VISUALSTYLE
  5
36
102
{ACAD_XDICTIONARY
360
96E
102
}
102
{ACAD_REACTORS
330
29
102
}
330
29
100
AcDbVisualStyle
  2

 70
    13
 71
     2
 72
     2
 73
     0
 90
        0
 40
-0.6
 41
-30.0
 62
     5
 63
     7
 74
     1
 91
        4
 64
     7
 65
   257
 75
     1
175
     1
 42
1.0
 92
       12
 66
     7
 43
1.0
 76
     1
 77
     6
 78
     2
 67
     7
 79
     5
170
     0
171
     0
290
     0
174
     0
 93
        1
 44
0.0
173
     0
291
     1
 45
0.0
1001
ACAD
1000
AcDbSavedByObjectVersion
1070
     0
  0
VISUALSTYLE
  5
30
102
{ACAD_XDICTIONARY
360
962
102
}
102
{ACAD_REACTORS
330
29
102
}
330
29
100
AcDbVisualStyle
  2

 70
     5
 71
     0
 72
     2
 73
     0
 90
        0
 40
-0.6
 41
-30.0
 62
     5
 63
     7
 74
     1
 91
        4
 64
     7
 65
   257
 75
     1
175
     1
 42
1.0
 92
        0
 66
   257
 43
1.0
 76
     1
 77
     6
 78
     2
 67
     7
 79
     3
170
     0
171
     0
290
     0
174
     0
 93
        1
 44
0.0
173
     0
291
     0
 45
0.0
1001
ACAD
1000
AcDbSavedByObjectVersion
1070
     0
  0
VISUALSTYLE
  5
3C
102
{ACAD_XDICTIONARY
360
97A
102
}
102
{ACAD_REACTORS
330
29
102
}
330
29
100
AcDbVisualStyle
  2

 70
    25
 71
     2
 72
     2
 73
     1
 90
        1
 40
0.5
 41
-30.0
 62
     5
 63
     7
 74
     1
 91
        0
 64
     7
 65
   257
 75
     1
175
     1
 42
1.0
 92
        8
 66
     7
 43
1.0
 76
     1
 77
     6
 78
     2
 67
     7
 79
     3
170
     0
171
     0
290
     0
174
     0
 93
       13
 44
0.0
173
     0
291
     0
 45
0.0
1001
ACAD
1000
AcDbSavedByObjectVersion
1070
     0
  0
DICTIONARYVAR
  5
878
102
{ACAD_REACTORS
330
874
102
}
330
874
100
DictionaryVariables
280
     0
  1
1:1
  0
DICTIONARYVAR
  5
876
102
{ACAD_REACTORS
330
874
102
}
330
874
100
DictionaryVariables
280
     0
  1
STANDARD
  0
DICTIONARYVAR
  5
875
102
{ACAD_REACTORS
330
874
102
}
330
874
100
DictionaryVariables
280
     0
  1
STANDARD
  0
DICTIONARYVAR
  5
87F
102
{ACAD_REACTORS
330
874
102
}
330
874
100
DictionaryVariables
280
     0
  1
1
  0
DICTIONARYVAR
  5
87E
102
{ACAD_REACTORS
330
874
102
}
330
874
100
DictionaryVariables
280
     0
  1
1
  0
DICTIONARYVAR
  5
87D
102
{ACAD_REACTORS
330
874
102
}
330
874
100
DictionaryVariables
280
     0
  1
0
  0
DICTIONARYVAR
  5
87A
102
{ACAD_REACTORS
330
874
102
}
330
874
100
DictionaryVariables
280
     0
  1
0
  0
DICTIONARYVAR
  5
87B
102
{ACAD_REACTORS
330
874
102
}
330
874
100
DictionaryVariables
280
     0
  1
0
  0
DICTIONARYVAR
  5
879
102
{ACAD_REACTORS
330
874
102
}
330
874
100
DictionaryVariables
280
     0
  1
2
  0
DICTIONARYVAR
  5
877
102
{ACAD_REACTORS
330
874
102
}
330
874
100
DictionaryVariables
280
     0
  1
1
  0
DICTIONARYVAR
  5
87C
102
{ACAD_REACTORS
330
874
102
}
330
874
100
DictionaryVariables
280
     0
  1
127
  0
DICTIONARYVAR
  5
91B
102
{ACAD_REACTORS
330
874
102
}
330
874
100
DictionaryVariables
280
     0
  1
2
  0
DICTIONARY
  5
987
330
6B
100
AcDbDictionary
280
     1
281
     1
  3
ACAD_XREC_ROUNDTRIP
360
988
  0
DICTIONARY
  5
98B
330
73
100
AcDbDictionary
280
     1
281
     1
  3
ACAD_XREC_ROUNDTRIP
360
98C
  0
DICTIONARY
  5
989
330
6F
100
AcDbDictionary
280
     1
281
     1
  3
ACAD_XREC_ROUNDTRIP
360
98A
  0
DICTIONARY
  5
1A
330
19
100
AcDbDictionary
280
     1
281
     1
  3
ACAD_XREC_ROUNDTRIP
360
8D6
  3
BUMPTILE
360
1C
  3
DIFFUSETILE
360
1B
  3
OPACITYTILE
360
1F
  3
REFLECTIONTILE
360
1E
  3
REFRACTIONTILE
360
20
  3
SPECULARTILE
360
1D
  0
DICTIONARY
  5
12
330
11
100
AcDbDictionary
280
     1
281
     1
  3
ACAD_XREC_ROUNDTRIP
360
8D5
  3
BUMPTILE
360
14
  3
DIFFUSETILE
360
13
  3
FBXASSET
360
E8
  3
OPACITYTILE
360
17
  3
REFLECTIONTILE
360
16
  3
REFRACTIONTILE
360
18
  3
SPECULARTILE
360
15
  0
DICTIONARY
  5
22
330
21
100
AcDbDictionary
280
     1
281
     1
  3
ACAD_XREC_ROUNDTRIP
360
8D7
  3
BUMPTILE
360
24
  3
DIFFUSETILE
360
23
  3
OPACITYTILE
360
27
  3
REFLECTIONTILE
360
26
  3
REFRACTIONTILE
360
28
  3
SPECULARTILE
360
25
  0
DICTIONARY
  5
91E
330
67
100
AcDbDictionary
280
     1
281
     1
  3
ACAD_XREC_ROUNDTRIP
360
91F
  0
DICTIONARY
  5
881
330
65
100
AcDbDictionary
280
     1
281
     1
  3
ACAD_ROUNDTRIP_2008_TABLESTYLE_CELLSTYLEMAP
360
91D
  3
ACAD_XREC_ROUNDTRIP
360
986
  0
DICTIONARY
  5
960
330
2F
100
AcDbDictionary
280
     1
281
     1
  3
ACAD_XREC_ROUNDTRIP
360
961
  0
DICTIONARY
  5
95E
330
2E
100
AcDbDictionary
280
     1
281
     1
  3
ACAD_XREC_ROUNDTRIP
360
95F
  0
DICTIONARY
  5
96C
330
35
100
AcDbDictionary
280
     1
281
     1
  3
ACAD_XREC_ROUNDTRIP
360
96D
  0
DICTIONARY
  5
974
330
39
100
AcDbDictionary
280
     1
281
     1
  3
ACAD_XREC_ROUNDTRIP
360
975
  0
DICTIONARY
  5
966
330
32
100
AcDbDictionary
280
     1
281
     1
  3
ACAD_XREC_ROUNDTRIP
360
967
  0
DICTIONARY
  5
96A
330
34
100
AcDbDictionary
280
     1
281
     1
  3
ACAD_XREC_ROUNDTRIP
360
96B
  0
DICTIONARY
  5
984
330
41
100
AcDbDictionary
280
     1
281
     1
  3
ACAD_XREC_ROUNDTRIP
360
985
  0
DICTIONARY
  5
972
330
38
100
AcDbDictionary
280
     1
281
     1
  3
ACAD_XREC_ROUNDTRIP
360
973
  0
DICTIONARY
  5
956
330
2A
100
AcDbDictionary
280
     1
281
     1
  3
ACAD_XREC_ROUNDTRIP
360
957
  0
DICTIONARY
  5
958
330
2B
100
AcDbDictionary
280
     1
281
     1
  3
ACAD_XREC_ROUNDTRIP
360
959
  0
DICTIONARY
  5
95A
330
2C
100
AcDbDictionary
280
     1
281
     1
  3
ACAD_XREC_ROUNDTRIP
360
95B
  0
DICTIONARY
  5
95C
330
2D
100
AcDbDictionary
280
     1
281
     1
  3
ACAD_XREC_ROUNDTRIP
360
95D
  0
DICTIONARY
  5
964
330
31
100
AcDbDictionary
280
     1
281
     1
  3
ACAD_XREC_ROUNDTRIP
360
965
  0
DICTIONARY
  5
980
330
3F
100
AcDbDictionary
280
     1
281
     1
  3
ACAD_XREC_ROUNDTRIP
360
981
  0
DICTIONARY
  5
970
330
37
100
AcDbDictionary
280
     1
281
     1
  3
ACAD_XREC_ROUNDTRIP
360
971
  0
DICTIONARY
  5
982
330
40
100
AcDbDictionary
280
     1
281
     1
  3
ACAD_XREC_ROUNDTRIP
360
983
  0
DICTIONARY
  5
968
330
33
100
AcDbDictionary
280
     1
281
     1
  3
ACAD_XREC_ROUNDTRIP
360
969
  0
DICTIONARY
  5
97E
330
3E
100
AcDbDictionary
280
     1
281
     1
  3
ACAD_XREC_ROUNDTRIP
360
97F
  0
DICTIONARY
  5
97C
330
3D
100
AcDbDictionary
280
     1
281
     1
  3
ACAD_XREC_ROUNDTRIP
360
97D
  0
DICTIONARY
  5
976
330
3A
100
AcDbDictionary
280
     1
281
     1
  3
ACAD_XREC_ROUNDTRIP
360
977
  0
DICTIONARY
  5
978
330
3B
100
AcDbDictionary
280
     1
281
     1
  3
ACAD_XREC_ROUNDTRIP
360
979
  0
DICTIONARY
  5
96E
330
36
100
AcDbDictionary
280
     1
281
     1
  3
ACAD_XREC_ROUNDTRIP
360
96F
  0
DICTIONARY
  5
962
330
30
100
AcDbDictionary
280
     1
281
     1
  3
ACAD_XREC_ROUNDTRIP
360
963
  0
DICTIONARY
  5
97A
330
3C
100
AcDbDictionary
280
     1
281
     1
  3
ACAD_XREC_ROUNDTRIP
360
97B
  0
XRECORD
  5
988
102
{ACAD_REACTORS
330
987
102
}
330
987
100
AcDbXrecord
280
     1
102
SHADEPLOT
 70
     0
102
SHADEPLOTRESLEVEL
 70
     2
102
SHADEPLOTCUSTOMDPI
 70
   300
  0
XRECORD
  5
98C
102
{ACAD_REACTORS
330
98B
102
}
330
98B
100
AcDbXrecord
280
     1
102
SHADEPLOT
 70
     0
102
SHADEPLOTRESLEVEL
 70
     2
102
SHADEPLOTCUSTOMDPI
 70
   300
  0
XRECORD
  5
98A
102
{ACAD_REACTORS
330
989
102
}
330
989
100
AcDbXrecord
280
     1
102
SHADEPLOT
 70
     0
102
SHADEPLOTRESLEVEL
 70
     2
102
SHADEPLOTCUSTOMDPI
 70
   300
  0
XRECORD
  5
8D6
102
{ACAD_REACTORS
330
1A
102
}
330
1A
100
AcDbXrecord
280
     1
102
MATERIAL
148
0.0
149
0.0
149
0.0
 93
        0
 94
      127
282
     0
 72
     0
 77
     0
171
     0
175
     0
179
     0
273
     0
  0
XRECORD
  5
1C
102
{ACAD_REACTORS
330
1A
102
}
330
1A
100
AcDbXrecord
280
     1
270
     1
271
     1
  0
XRECORD
  5
1B
102
{ACAD_REACTORS
330
1A
102
}
330
1A
100
AcDbXrecord
280
     1
270
     1
271
     1
  0
XRECORD
  5
1F
102
{ACAD_REACTORS
330
1A
102
}
330
1A
100
AcDbXrecord
280
     1
270
     1
271
     1
  0
XRECORD
  5
1E
102
{ACAD_REACTORS
330
1A
102
}
330
1A
100
AcDbXrecord
280
     1
270
     1
271
     1
  0
XRECORD
  5
20
102
{ACAD_REACTORS
330
1A
102
}
330
1A
100
AcDbXrecord
280
     1
270
     1
271
     1
  0
XRECORD
  5
1D
102
{ACAD_REACTORS
330
1A
102
}
330
1A
100
AcDbXrecord
280
     1
270
     1
271
     1
  0
XRECORD
  5
8D5
102
{ACAD_REACTORS
330
12
102
}
330
12
100
AcDbXrecord
280
     1
102
MATERIAL
148
0.0
149
0.0
149
0.0
 93
        0
 94
      127
282
     0
 72
     0
 77
     0
171
     0
175
     0
179
     0
273
     0
  0
XRECORD
  5
14
102
{ACAD_REACTORS
330
12
102
}
330
12
100
AcDbXrecord
280
     1
270
     1
271
     1
  0
XRECORD
  5
13
102
{ACAD_REACTORS
330
12
102
}
330
12
100
AcDbXrecord
280
     1
270
     1
271
     1
  0
XRECORD
  5
E8
102
{ACAD_REACTORS
330
12
102
}
330
12
100
AcDbXrecord
280
     1
 70
     1
 90
1959938040
 71
     1
  1
F9EB8EC0-A033-4764-BDF0-47B1C269E952
311
504B03040A000008000059615A3F3DEE336E79000000790000001B0000006175746F6465736B2D64657369676E2D7061636B6167652E786D6C3C3F786D6C2076657273696F6E3D22312E302220656E636F64696E673D227574662D3822203F3E3C666F726D6174733E3C666F726D61743E687474703A2F2F736368656D612E
311
6175746F6465736B2E636F6D2F64657369676E2D7061636B6167652F323030393C2F666F726D61743E3C2F666F726D6174733E504B030414000608080059615A3FD486FD9CA0000000F4000000130000005B436F6E74656E745F54797065735D2E786D6C7D8EC10E82300C865F65E91D8A1E8C310C0EEA1BF002731658846E
311
D98AC1B77784ABF1D8FE5FBFBF75BBCE937A534CCEB38643598122B6FEE978D0B0485F9C41B54DDD7D022595594E1A469170414C76A4D9A4D207E29CF43ECE46F218070CC6BECC4078ACAA135ACF422C856C0E68EA1BF5669944DDD7BCDE7B1F8E415D77AECB980613C2E4AC91FC167A2B244592486606FC29C8FD7F045B9A
311
EF7053A7E60B504B030414000608080059615A3F588964D2E80000007C01000008000000636F72652E786D6C8D904D6EC3201085AF82668F0DF847B685899A483D412F8080B828315806AA1EBF903852BBEB6A466FDE37337AFCF4BDDED197D983F56E065A1140C629AFAD5B6648F18A074027C177EFE32F1B202757334391
311
41F065F7693B24E55D342E66D5796D0E518660222075CFCD0C417D9A555632C5EC08B76A93EA261753D15797E194AC46CF2356E77DF66ACD0EE242CE6F6DFFDE63D68E2D6E3B76C6C340196E2F741C7BD2746468785D60C1A35D5FF7D56E64341A042394624A30EB3F289B28993A82493F11C2EB62FF03A54DFF134AD6C586
311
1DEF3EB10082E6471E03C1EB92452E8FA0722DB9891F504B030414000608080059615A3F55019EA25F0000007C00000007000000636E782E786D6C4DCB3B0E80201045D1AD90E915ED2CF8AC45050C11660C8261F98AB1B07AC9C97D42D718D865D3E909258CFD00CCE24AC6E326A164D74DC0B4128928FF326038472BA131
311
28B1252AC747C6BAB984FC68F0B87FE8960A5C09FE86CFB69FBA01504B030414000608080059615A3F0161B1A864010000020300000C0000006662782F636F72652E786D6C8D52ED8E8320107C15C27F04AC35B6419A6B937B827B01AAB447AA60104C1FFFD68FC6EBA5692E26486676766747C5E1DE3668D0BE37CE969827
311
0C236D2B571B7B2D710C1752607490C23B177E95616455AB4B3CC2588AAB77B15BA0CAD9A06D00D4BA5A2FA0EA7B1D30AA1AB894B8AFBE75AB12150354F4B7A453D54D5D75C213A0A14E8A3E783080E621E389E5E57C1774C6A588D1D40B6B6A98662E467B2C4FECF891E59F3949B35D46B26D7A2445C153929DF86E97B3CD
311
96151B4147B114C1B40F7795D72AE81ACB94714E382369FEC5D33D67FB2D232CDF3326E858FE248A5DFD4F5134366CD2C5EE2CEBB1E4606422FE6C0B1105D4AB01FC5029E81822BCA6849F83864020E4A0CECD638F1B4083AE82F31930B58B2B35A8266A98CAD0F4083AB3D0796A009BBDEC93BEE9F3BE077C4065AF604D05
311
B89E6318A78B79EA1245A73D19C21D59E75BD5ACE6668BEBB90E7A29AF5CE3FC7FD47459952E61D2F1EF953F504B030414000608080059615A3F52A867FE7E0000009D0000000B0000006662782F636E782E786D6C4DCCD10E82201886E15B61FF398946111BE030F33E5CA263213404D7E5A7CD838EBEEDD9B757D49FD9A1
311
D5C4C5062FA13C1140C63FC360FD2421A711DF00D54AC410D2DF0D90EF6723616750628A21BF0F1ACCD867973675D6BF0E6C4AA259776198327DC594728E353957F8A11BA62BDEB6F78E43A144F12B6DBB87D517504B030414000608080059615A3F05767A292D01000015020000310000006662782F42313041374635372D
311
343741362D343439392D413033322D4541423741323944444346392F636F72652E786D6C8D51CB6EC32010FC15C4293D600371EC38C2444ED37C417FC00192A2C460F1A8F2F985DA91DA5B2E2C9A9D991DEDB2FD63BC836FE5BCB6A683A4C0102823ACD4E6DAC1182E680BC19E33676DF84383C00CA3EA608621675767E3B4
311
40C29AA04C48A8B1522DE0E0BD0A10887BFA74D08B2F350EC5104362F85B310DE2365C55418AD44E3CCE7C7029009887E417F203C17D73DA34A86AFA1A5555DBA21EAF29FAE80F4D4FDBE3F1FDD4B272167216A3968B5CCB14475FB472AF9A643167418FCFF8C2A921280939C584208211AD3F09DD11BCDB6084EB1DC6ACCC
311
F47FA238C91745519BB0A64BDC59E62127AC9C1B9C491BCFF76718F598AC0B20CF5B7925DE20C705C6D57ABB6D69C3CA999B36904CEB6A31F5C1BAB4E1D5ED9CE864333BD71567653E522ABF174C351F94FF00504B030414000608080059615A3F4D476ACF4C01000033030000300000006662782F42313041374635372D34
311
3741362D343439392D413033322D4541423741323944444346392F636E782E786D6CD593C16EC32010447F0571B70D696A551126520FFD821E7AC5B04968305880ABE6EFBB2424CD25871E7B41D6EC30B37AC262FB3D39F20531D9E007CA5B4609781D8CF5FB812E79D7BC50B295228690EF6C947835C1408B4CA5D8C7B0CC
311
5532B0538BCBA83AEB8F558C90C212352494CB4DE282560E03C0370B8A308D600C187233E2D70E22AE82E27822F900E4EDF58384F113744EA22B295274A5438A72D6A63B1325DAA994069AF40126D5AA250703E9D81A9555CBDB6BD7839D7E9348B970AD5CA225A57CA0E5A4B26ED42247D1E1508A9423D2ABA67C9A814A35
311
CFCE6A95117277365E3C522CD6E77E5DBD16C14774F3FE69BDC6B0F34C8A6C27A80E1D41653054AE18E70D67CDAA7FE7AB0D679B67D6B07EC398E88A5D8A3104572F610CC430131D7C069FA9E4A22BE347F8AA8F181B917588A73F804400B5F542E796F19FF974E7F78DB822FE05F207504B030414000608080059615A3FFC
311
A93967A505000081100000340000006662782F42313041374635372D343741362D343439392D413033322D4541423741323944444346392F6F626A656374732E786D6CAD57D96EDB3814FD1541F332F3E045B693C60345456C2785D1A62D6AB4980703062D510A27D402924A9DF9FA3914295972ECC433E88B162E97F79E7B
311
EE42FFFD2EE5CE131592E5D9B5EBF587AE43B3308F58965CBBA58A7B57AEF33EF0459EABD632D7C9484AAF5D3DEC067E22F2B2B043118D49C9D5C1E8DDEC2F478634A3AE137222E5B52BC3079A923E29551E51F9D88F8822FD24DEF5BDBE59D8159B08523C1C082D88A09982A618CF20C5314A79DDDFA13B08FC819E0F7CFD
311
B4ABC6A7570D2A7BBAE7B34C2A92852F0E3B1033F6268BDBD1C5B47731998C7B93CB91D79BDDCD163DEFDD7838BF9CCFA737B7531C2C958024AB89A0B11B7C00368285FEC04C057EC932351ED925D64103419F98F6941B8C1CCF1F98358D75D6C863EA877996D1B0C20A6854F659D1112D6816C1E78C4A68D64268D8FDF534
311
8EADE9B1FEB747B687CF43A0BDA325A8D6BD7EB735CDB77FC304790E8384A49A81064B6BA8E1EA708FF036CFB99D63D24989A28211EE70B615443CBB0196EA2581DF11A3992C7434680BDC005E30D35DBA208CDEE6F9312DE392734D6337A8A2608358A14A569AB17FA8D86BDF46063AC1579A0D57D620F55C5037981A8A5C
311
1DB0C900E9C49C247039CCD43BC7A30343E73A4E970B37F878B7DDAD74EC1E3FBC10794185D2F401B56AC7D56F8D92D5C93BCB737A837BA0CA1E946F40FE33427DAF0AFC26D86EB29BD8539420998C7391C237CED0E90DF1183A5EF5D4DFAD2F7FD06CEE7AEF149E70B686EA17E0D9B5A1EDCB169C81FF04C2E7626C4D5B85
311
84236DDCB30C006992383CC710F270BCDDB9C112590E5919BB080F3C980C759FF0E90FAC18248AEAA4D63B03960769F18C040DD82A46420D437EABE0DE4F2FD25975B05D760ADE8B5F42D79BC5EAE3AA143109E9BD8DE9058D59C6144ADC9E376D853A98772C7AA4CF3F7311C1D09778AFDA78A7F62809B435E61AF8A4CEE9
311
FA677F72E78010FB925CA71BFF8D1360842EAC2DF9F74C86947392D1BCACCF7DB57EA06C188875B06B263705665F58401A3373108328D2A1608506B1A9564DD2EC9FB0EEFBF23318E906B3E74FE4B99DBDB6FBDC1BE63C179BEDF3C6A4A5A350FFE872DB6230D05240F72A48EAF8B7A06F2216C7A544123C82EB8FE5BCED3B
311
9D1690226AA9265A26B01FC14584256D2D17D55A1054D23CDB30D44DC4DDD103DAF201A9654025F094C692F278C3382FD34DCC38AAD12625C50938FEBFFEDB322D3624CDCB4C9D90DD511DD5A1AB7B87BDF22751E1831BACAA776F86DC1BD1E80419742D398255C7B577D3DBD9D5ED7CD8BB198ED13FBDBB9CF4668BBB616F
311
F26EE6CD4797D3DBE9C5A8F693D124F0EB52D38E687809A5CD2F05B3EEFBBE44FCD824E006F744C9F507139EF5FBFBB28F5ED81F600FEA65B3F1267A42DF47A3B705EC571E15B44C0B4E539A29A263E85E7FF06F047D46471933BE4C4942CF90F2E5C3EAC0188C9CB1EFAB8E77FAF360AF1D9DEB803C2A443D94E936238C1F
311
6C4C0C92FD224B2C7EB54F9AB72934F5AFFEB38E41672A73CE22E4C1C849689E52856C784611122995A05EBBA78FECDDE38CDD4FA6435464CB69ADC9034193CC25C202D42A43D51D777E4353A7FBAA6B17E5B6FF8887CD14AE03CE5CBB68D2150BA9EC6F51A0752B54090797DA9D3C1A7F92251CBDB6D9D4FC37BB34369D92
311
DC2C39A77FB27699146E0D401A29D037A02182772A6502BFD2CDCE87FFC9F05A1D87287C6E4BD5D8B21F688CA98E41881AA3EC6D014DCCA33D7A87407DDD2CAF5FADE92072D62DEB551218A93D454452DD14B47E56A59BC5D7013A1467F9C5297899C097E74BEA090A32973AC0C122B0C2CA2C880255E77FAEBF8A1C37D9D4
311
B963A080F3FBEEEAF28FF53C4FD33C3343EB1B7B1F76560FB8DD466B2407AAAF25723D1A7AA375751DB03794CD9648DA27917CC4003C2B580374C7FDE0A5B933A20E998966DD40BBE280A1CB85630BDB04422D5DDAB9558383C623A30E62485F2975C4B41714AFDE0806D552A820D0CB07FF02504B03041400060800005961
311
5A3F000000000000000000000000350000006662782F42313041374635372D343741362D343439392D413033322D4541423741323944444346392F76657274696365732E62696E504B030414000608080059615A3FF270F1330600000004000000360000006662782F42313041374635372D343741362D343439392D413033
311
322D4541423741323944444346392F747269616E676C65732E62696E636660600000504B030414000608000059615A3F000000000000000000000000370000006662782F42313041374635372D343741362D343439392D413033322D4541423741323944444346392F617474726962757465732E62696E504B030414000608
311
080059615A3FD5987DFC8F00000041010000360000006662782F42313041374635372D343741362D343439392D413033322D4541423741323944444346392F6469726563746F72792E786D6C858F410EC2201045AF4266AF15DDB800BA74E7C21B903225242D6328188F2FA5C4183471359997F9FF81E89FF3C41E1816475E
311
02DF1F80A11FC8386F25A438EECEC07A250251FC3803E6F58C12560C4AD840E95E91C151A72936F496F35732D860FE635F62C8F2DA16B505C545B74125BAA2FA9E05D7CC053D063734D5C7665FD55B6B8D15D5E9BFEAFD8490FFA45E504B030414000608080059615A3F306339E3FB000000A00100003B0000006662782F42
311
313041374635372D343741362D343439392D413033322D4541423741323944444346392F7265736F75726365732F636F72652E786D6C8D50596AC33010BD8A997FD992BC6007592109F404BD809027AE482C192DA5C7AF1CBBD0FEF56766780BF378E2FCB53C8B4FF4C1383B022B291468B59B8C9D4748F14E7A28CE5278E7
311
E22F1914562D38C2068314B377693D20ED6C441B336ADD8407A842C008857EE66384A03F7051A54A312BC2A35C957EA8194B56663AEBA408D1E700C5FE649B203D0697BCC620AA9D952225331D1A33E59FE66ED083BCD1EBA5E9DE5AC29BA1214DCBAFA4EF1927CD8D0D4347EB96F6B5A836B314D12C3F19B547157102C929
311
638451C2BB77C64F8C9E5A4A6877A254549BFC8F29ADD33F4DC9D858F323EE6E0B20590EF222A4A8B6BEF27A9599F7D6ADFC06504B010214000A000008000059615A3F3DEE336E79000000790000001B00000000000000000000000000000000006175746F6465736B2D64657369676E2D7061636B6167652E786D6C504B01
311
02140014000608080059615A3FD486FD9CA0000000F40000001300000000000000000000000000B20000005B436F6E74656E745F54797065735D2E786D6C504B0102140014000608080059615A3F588964D2E80000007C010000080000000000000000000000000083010000636F72652E786D6C504B010214001400060808
311
0059615A3F55019EA25F0000007C000000070000000000000000000000000091020000636E782E786D6C504B0102140014000608080059615A3F0161B1A864010000020300000C00000000000000000000000000150300006662782F636F72652E786D6C504B0102140014000608080059615A3F52A867FE7E0000009D0000
311
000B00000000000000000000000000A30400006662782F636E782E786D6C504B0102140014000608080059615A3F05767A292D0100001502000031000000000000000000000000004A0500006662782F42313041374635372D343741362D343439392D413033322D4541423741323944444346392F636F72652E786D6C504B
311
0102140014000608080059615A3F4D476ACF4C010000330300003000000000000000000000000000C60600006662782F42313041374635372D343741362D343439392D413033322D4541423741323944444346392F636E782E786D6C504B0102140014000608080059615A3FFCA93967A50500008110000034000000000000
311
00000000000000600800006662782F42313041374635372D343741362D343439392D413033322D4541423741323944444346392F6F626A656374732E786D6C504B0102140014000608000059615A3F0000000000000000000000003500000000000000000000000000570E00006662782F42313041374635372D343741362D
311
343439392D413033322D4541423741323944444346392F76657274696365732E62696E504B0102140014000608080059615A3FF270F13306000000040000003600000000000000000000000000AA0E00006662782F42313041374635372D343741362D343439392D413033322D4541423741323944444346392F747269616E
311
676C65732E62696E504B0102140014000608000059615A3F0000000000000000000000003700000000000000000000000000040F00006662782F42313041374635372D343741362D343439392D413033322D4541423741323944444346392F617474726962757465732E62696E504B0102140014000608080059615A3FD598
311
7DFC8F000000410100003600000000000000000000000000590F00006662782F42313041374635372D343741362D343439392D413033322D4541423741323944444346392F6469726563746F72792E786D6C504B0102140014000608080059615A3F306339E3FB000000A00100003B000000000000000000000000003C1000
311
006662782F42313041374635372D343741362D343439392D413033322D4541423741323944444346392F7265736F75726365732F636F72652E786D6C504B0506000000000E000E0080040000901100000000
310
504B03040A000008000059615A3F3DEE336E79000000790000001B0000006175746F6465736B2D64657369676E2D7061636B6167652E786D6C3C3F786D6C2076657273696F6E3D22312E302220656E636F64696E673D227574662D3822203F3E3C666F726D6174733E3C666F726D61743E687474703A2F2F736368656D612E
310
6175746F6465736B2E636F6D2F64657369676E2D7061636B6167652F323030393C2F666F726D61743E3C2F666F726D6174733E504B030414000608080059615A3FD486FD9CA0000000F4000000130000005B436F6E74656E745F54797065735D2E786D6C7D8EC10E82300C865F65E91D8A1E8C310C0EEA1BF002731658846E
310
D98AC1B77784ABF1D8FE5FBFBF75BBCE937A534CCEB38643598122B6FEE978D0B0485F9C41B54DDD7D022595594E1A469170414C76A4D9A4D207E29CF43ECE46F218070CC6BECC4078ACAA135ACF422C856C0E68EA1BF5669944DDD7BCDE7B1F8E415D77AECB980613C2E4AC91FC167A2B244592486606FC29C8FD7F045B9A
310
EF7053A7E60B504B030414000608080059615A3FDB35DE27EA0000007C01000008000000636F72652E786D6C8D905B6EC3201045B782E61F1BFCAA6D61A2E6B5826E0001715162B00C44597E71E248ED5FBF6674E79E99D165BBC7744377BD78E3EC00342380B4954E193B0E10C305B780769C2DCE855F3640564C7A805506
310
CEC6C5C57993A4B341DB9054EB94DE44E1BD0E80E42D350378F9AD2791891892C35FB359C8AB187546DF5D8263340ABD8E1895F6998BD10BF0B6A9697BAE6A7C3EEC3B5C95DD1177EDF1037F9EDA5359EE69450E0DCB5798B360A6F77DB96811B4025E104A3125B868BE68D153D2D70493A62784E5ABFD0F1467F54F281A1B
310
CA627BF78579E0343DF21C7096AF59A4F20C2AD53537FE03504B030414000608080059615A3F55019EA25F0000007C00000007000000636E782E786D6C4DCB3B0E80201045D1AD90E915ED2CF8AC45050C11660C8261F98AB1B07AC9C97D42D718D865D3E909258CFD00CCE24AC6E326A164D74DC0B4128928FF326038472B
310
A13128B1252AC747C6BAB984FC68F0B87FE8960A5C09FE86CFB69FBA01504B030414000608080059615A3FC05A9B4767010000020300000C0000006662782F636F72652E786D6C8D52ED8EC220107C15C27F0A54ED558398F3EB09EE05B0C51EB10543A1F1F16FFB613C2FC65C9A5032B3B33B3BADD8DC9A1A75DAB7C6D935
310
E609C348DBC295C6566B1CC399E4186DA4F0CE855F651859D5E835EE612C45E55DBC4E50E16CD036006A5DA92750B5AD0E1815355CD6B82DBE75A312150354B497E4AA8A8BAA74C213A0A14E8A36783080C621FD89E5F9741374C4A588D194136B4A9866CE467B2CF36CC1F3E37C418EBBED92CC67CB3D59E6FB0FF279C80F
310
B3D996CFD92E13B4174B114C73775778AD822EB14C19E7843392665F3C5D71B65A30C2B2156382F6E54FA2782DFF298AC686593AD91D652D961C8C0CC49F6D21A2805AD5811F2A05ED4384D790F073D01008841CD4A9BEEF7101A8D345707E0E4CE9E283EA541D354C656878041D59E83C3480CD5EF649DFF479DF033EA0B2
310
15585301AEA718FAE9629C3A4571D59E74E186ACF38DAA1FE6468B8FF331E8A5BC70B5F3FF51D369553A8549FBBF57FE00504B030414000608080059615A3F4DEBEF9A7D0000009D0000000B0000006662782F636E782E786D6C4DCCD10A83201886E15B91FFDCA5E124418D5C741F511692E9703A76F9ABD1C18E3E78F878
310
65FBD93D7ADBF4723128A03702C88629CE2EAC0A4A5E7003A8D532C598FF6E80C2B85B052783966B8AE579D16C97B1F87CA87761BB9035ACEFF87DC082508159CD2836BD11D83C3A5E534318A703545A56BFD2B167587F01504B030414000608080059615A3FC8F28B522A01000015020000310000006662782F3438344441
310
3635462D393031392D343234312D424442392D4243413632314230343631462F636F72652E786D6C8D51DB8EC22014FC15C293FB400B1549351463D7F805FB03485189161A2E1B3F7F615B93DD375F3864CECC9CC9397CFF1C1FE05BFB609CED20A93004DA2A37187BED608A17D442B017DC3B17FFD020B072D41D2C3014FC
310
EA5D9A1648391BB58D19B56ED00B2843D01102F5C89F0E0675D3A3AC648A9911EED524D55D5E7545AADCCE3CC143F43900988794170ADAD2E3816D4E688BC916D18612D41FFB2DEA3F0FAC213DA68C9C783D0B054FC90C8BDC0C398EB918EDDF352962C1A3195FF195D732EA018A06138208460DFB22CD8EE0DD0623CC7618
310
F3BAD0FF89D234BC294AC6C675B3C49D65010AC2EBB921F8E0D2F9F10AA39F93F3119479ABA0D50714B8C2981146DB4DCBEB999B37904D195D4C43743E6F78753F67FA7A716654F0BA1C2997DF0BE65A0E2A7E00504B030414000608080059615A3F2BE0A5D85401000033030000300000006662782F34383444413635462D
310
393031392D343234312D424442392D4243413632314230343631462F636E782E786D6CBD93CD6EC32010845F0571F70F4E6A451126520F7D821E7AC5B04969305880ABE6EDBB2424CD25874A552FC89A1D66569F30DF7D4D967C4288C6BB81B2BAA5049CF2DAB8C34097B4AF3694EC040FDEA73B1B254E4E30D02C53C10FC1
310
2F739134ECE56213AAD6B863110344BF040511E57C9358AFA4C50070D582224C23680D9ADC8CF8B58780ABA0389E487A07F2F2FC46FCF8012A45DEE414C19BDC21783E4BD39D891265658C038DEA1D2659CB25790DF1586B9964CDEA6BD7839D7E9248BE70AD5C8221B97CA0F9A4A26C542347DEE050F09802D22BA6749A81
310
0A39CFD62899107273365E3C822FC6A57E5DBC06C10774AFBA7EB3C1B0F34CF06426280E154026D054742D63156BABAE7F65DD96B5DBA7B66AFB6DDBF226DB051FBDB7E512C640F03351DE2570890AC69B3C7E84AFF888360159FB70FA054804505A2F746E197FC987F5ABF5FA1FF934E7F78DB802FE05E21B504B03041400
310
0608080059615A3F8FFD817B630700009A1B0000340000006662782F34383444413635462D393031392D343234312D424442392D4243413632314230343631462F6F626A656374732E786D6CED59DD739B3810FF5718EEE5EEC1D8C44E9ADC103A8993743CBDB49DFADAB907CF3032C8441721184924F1FDF5B7FA00033109
310
BEE6DEFA6003425AEDFEF6534BF0FE29A3CE03E682E4ECDCF5BD89EB6016E70961E9B95BCACDE8D475DE8701CF73D998E63A0C65F8DC55C36E18A43C2F0B3B94E00D2AA9EC8CDE5CFEE5881833EC3A3145429CBB22BEC319F25029F3048B7B2F411279E9E6C9F33D33B14D36E5A8B8EB102D10C74C02A730CE808A6398F2DB
310
8F13771C0663F53E0CD4BF9D351D346BD63F6BACA56E7349989088C5CF58EA90990E6269EACFAEAE8F8ECF46C7B3D974343B39F2479737975723FFDD74323F99CFCF2EAECF80BD759E532B53820BCC12D0DFD60DFD60ACDED4A25B04F6711DE78CE15803095069B1BA040916B05503BE49FBD15712355E6B091BCF33F5DEB2
310
D0189EB6A9F4CD1A06448B2E0862B7AB24AEAE4DF9F2F5DF20B81862945C6009DC0AC941BB161E0E5EE18693606C46C360BDD305114E8624E60451879235471C940253D59430300B2C19E51C1C48394A02AD39F3BA6D5BE099AFBBCE3E2E3725A5CA33DC503B5604EE87A5D09C917F30DF71DF44067802694BC2E4A9E5526E
310
0BEC8667C1580F8681BA4C8FEC4B03A4B3A128151A11F3B623E85CB9FEE2CA0D3FDEAC9F962A1CECDFBCE07981B95446A7F4A8F90243B6578592DDD61FA439B5008431A0DA953B50BE02F29F207AEC5801BD71F2347B9AD9B99223263639CF4037CEC4194DE06FE2F8FA5FDD37EE8271BDB8ADBD3E3CC14D1554A73F8E675B
310
068D95E5BF0167183C80C1E77C6A5F2D6344C19E6F09038094913834872108ED9BF5931B2E207042A0875588863E880CEC3EC06D30B664765AA9DCCB7A1D0344ED1ED3214A02D8B445021B3D7AFA00D9839378A7A6A6887DF01EBF89B95E5C2D3F2E4BBE4131BEB53E7D853784110959733F432DCC5B12DDE3ED63CE1310F4
310
39DECB26DE99DD4A00DA0A73057C5A81A01E763BB73688615D9AAB7013BCB20308A1727583FE2D1131A614319C97D5BE757453865A7BBCAD19DCF0C8403C3DEA9830C70F445515E034BB192D4621EFC79C140A4437FC6024AB83A6D723DDB7C527B0C87A7ECFAC0583D0CB10FD5307AD3D38B42CBB42DA02510BBCDE85F338
310
A7398FD6DBC8443A176A0960A3ED2DDF5B4421D61B25292AE041DAEFAA90921A69A3846C36A580B8BA87C5EF8B79D31C26DED43F769AFF1D679C41B405DF45DCFA5D678F886428C5D106257DDB3577AB690B4DB28734C71B0A72910722B71192D124C1E921D01C44FCEC4DA9A7341782302C205FED05BF89C6C4834062B459
310
B1ACB4DA019A8828C312D1431050647AC0D56947D7B831940EAFF3585BEF4B1A6B12FD9F2C8223A82573161128452187BCCAB8EF1D430C69A36B50EEE00BD656D1D662D0124A88781B3D6292DEC9435037E47B708FE14852CA282F500C663D80EC335F514AEDF0BE46F1BDCA1F515CD2B7321081E92622949659043FC2E0E4
310
31C4B5EBC0F4220A0DE226F6499C41518664C9876C72723C79B68FA919BA21B0B1D1865008DB51868A1ED45B0151D7234E0DBEA5DEA3D475991511CAF2920D32146FDAF5264BBEAB56457620BFAA5484B2B1226C09860161B2CEAA55CC0653D78115DC4807AA6D24505650730A7B25F1F8B53769CABD1B70EBA76FBB410685
310
5F8FF69A117556C160796C1506E211C9F8CE0D97FA3ABA84FA3BC1C92ED557B566B30204C454242F39B12AFAB680F2C6D6686E788BA4587D3059B7BA7E5B78D0FD08C6B0066A977AE142019D612691AA4C6ED50DFD8A2004B76898F185CAA98750B948125D35227A43FAD4D92A235A9B66C42BEE30CB33F8B11561312D13BC
310
4289B88F6E258D9644B16EA5F4325261FCA2809F3F2C3BF0C0C80091BEA8020F3F76D6DAD1B92A97F612917765B6668840106C89961ADD78054BAD462A2DD75775A680BA0B0CCCAA78F6F364D16C47FC3C59A4D6307EE86471B9FD036D9B7D91463A8F955D1F740CA8F393A2F216C700DD76A8A9D659C424732BBF75A60882
310
6215E507576355D03004FB38FECF59BB2F0B9AED3AFC1F96B5FD6715C74159A5355975A9F654AE8B660EBB39BBBE3CBD9E4F461793293468DF9DCC4697573793D1ECDDA53F3F3A39BB3E6B14B6DA51C3A00E663A77C1B3096AD5B07AB218405756E49424709A4F9C1443CC9770A61FD03EE71916903C9BCDEEC436E507AC7E
310
307D4E89D614579CDC2168105301691D302A63D91E777E81D6A48483F6B90B4D23EF1EFEAC55BA0E649E73175A0592C458786B6833A9869E260E2957E77E4B0CF0412C5529D12CAA9FEB550A9B56F8AFA70C490356AE560F030AB702BA5FAD0E85E6CDF2141F2478C58E8324DCAE4B09D59A916537500BA3B7D9A9DFC84609
310
BBB75B3F81EBBE2C96EFE9392D44067D3278D1080CD591443CD5FD6EC59865E9E2EACB18FA6CCEE2B353D032055D0EA734E2188CB954051558115885A5592009A63AFF7DF585E7F08927737455E4FCFA747AF2DB6A9E6759CECCD0EA024E65097C28729677F0D9275941F18055735DAC8E26FED14A37B56D9F3D5A23813D55
310
15C140554C28413A260776F9AC4165DB9763A58ACEF4C59563832834038C1D3DEBF19A8F5C0EF890FA9CA23C46FB7925ED8B7DEDB19E0A36C1A1231DFE0B504B030414000608000059615A3F000000000000000000000000350000006662782F34383444413635462D393031392D343234312D424442392D42434136323142
310
30343631462F76657274696365732E62696E504B030414000608080059615A3FF270F1330600000004000000360000006662782F34383444413635462D393031392D343234312D424442392D4243413632314230343631462F747269616E676C65732E62696E636660600000504B030414000608000059615A3F0000000000
310
00000000000000370000006662782F34383444413635462D393031392D343234312D424442392D4243413632314230343631462F617474726962757465732E62696E504B030414000608080059615A3FD5987DFC8F00000041010000360000006662782F34383444413635462D393031392D343234312D424442392D424341
310
3632314230343631462F6469726563746F72792E786D6C858F410EC2201045AF4266AF15DDB800BA74E7C21B903225242D6328188F2FA5C4183471359997F9FF81E89FF3C41E1816475E02DF1F80A11FC8386F25A438EECEC07A250251FC3803E6F58C12560C4AD840E95E91C151A72936F496F35732D860FE635F62C8F2DA
310
16B505C545B74125BAA2FA9E05D7CC053D063734D5C7665FD55B6B8D15D5E9BFEAFD8490FFA45E504B030414000608080059615A3FC89EF0BFFC000000A00100003B0000006662782F34383444413635462D393031392D343234312D424442392D4243413632314230343631462F7265736F75726365732F636F72652E786D
310
6C8D50596E833010BD0A9A7F830D8412641C35DB097A01CB4C889560232F558F5F13A8D4FEF56766F416CDD3E387AFE9997DA2F3DA9A1E584E2143A3ECA0CDD8430C37D2427610DC591B7EC9203372C21E1618041F9D8DF306296B029A90506307DC40E93D06C8D4331D3D7875C749E63286A4F08F7C96EA2147CC599EE8A4
310
13DC07970264EB93658270E86D740A3D2F5656F018F5B069F4907EEA9B4607A26D76ACBDD635B99E8E7B5257FB33D9B7E737F27E692F557564353D35BC58CC82073DFD64540E65C001444919238C92B2F96065C768B7A384361DA5BC58E47F4C711EFE698ADA84AADCE2AE360F82A5202F42F062E92BAD5799692FDD8A6F50
310
4B010214000A000008000059615A3F3DEE336E79000000790000001B00000000000000000000000000000000006175746F6465736B2D64657369676E2D7061636B6167652E786D6C504B0102140014000608080059615A3FD486FD9CA0000000F40000001300000000000000000000000000B20000005B436F6E74656E745F
310
54797065735D2E786D6C504B0102140014000608080059615A3FDB35DE27EA0000007C010000080000000000000000000000000083010000636F72652E786D6C504B0102140014000608080059615A3F55019EA25F0000007C000000070000000000000000000000000093020000636E782E786D6C504B0102140014000608
310
080059615A3FC05A9B4767010000020300000C00000000000000000000000000170300006662782F636F72652E786D6C504B0102140014000608080059615A3F4DEBEF9A7D0000009D0000000B00000000000000000000000000A80400006662782F636E782E786D6C504B0102140014000608080059615A3FC8F28B522A01
310
00001502000031000000000000000000000000004E0500006662782F34383444413635462D393031392D343234312D424442392D4243413632314230343631462F636F72652E786D6C504B0102140014000608080059615A3F2BE0A5D854010000330300003000000000000000000000000000C70600006662782F34383444
310
413635462D393031392D343234312D424442392D4243413632314230343631462F636E782E786D6C504B0102140014000608080059615A3F8FFD817B630700009A1B00003400000000000000000000000000690800006662782F34383444413635462D393031392D343234312D424442392D4243413632314230343631462F
310
6F626A656374732E786D6C504B0102140014000608000059615A3F00000000000000000000000035000000000000000000000000001E1000006662782F34383444413635462D393031392D343234312D424442392D4243413632314230343631462F76657274696365732E62696E504B0102140014000608080059615A3FF2
310
70F13306000000040000003600000000000000000000000000711000006662782F34383444413635462D393031392D343234312D424442392D4243413632314230343631462F747269616E676C65732E62696E504B0102140014000608000059615A3F0000000000000000000000003700000000000000000000000000CB10
310
00006662782F34383444413635462D393031392D343234312D424442392D4243413632314230343631462F617474726962757465732E62696E504B0102140014000608080059615A3FD5987DFC8F000000410100003600000000000000000000000000201100006662782F34383444413635462D393031392D343234312D42
310
4442392D4243413632314230343631462F6469726563746F72792E786D6C504B0102140014000608080059615A3FC89EF0BFFC000000A00100003B00000000000000000000000000031200006662782F34383444413635462D393031392D343234312D424442392D4243413632314230343631462F7265736F75726365732F
310
636F72652E786D6C504B0506000000000E000E0080040000581300000000
  0
XRECORD
  5
17
102
{ACAD_REACTORS
330
12
102
}
330
12
100
AcDbXrecord
280
     1
270
     1
271
     1
  0
XRECORD
  5
16
102
{ACAD_REACTORS
330
12
102
}
330
12
100
AcDbXrecord
280
     1
270
     1
271
     1
  0
XRECORD
  5
18
102
{ACAD_REACTORS
330
12
102
}
330
12
100
AcDbXrecord
280
     1
270
     1
271
     1
  0
XRECORD
  5
15
102
{ACAD_REACTORS
330
12
102
}
330
12
100
AcDbXrecord
280
     1
270
     1
271
     1
  0
XRECORD
  5
8D7
102
{ACAD_REACTORS
330
22
102
}
330
22
100
AcDbXrecord
280
     1
102
MATERIAL
148
0.0
149
0.0
149
0.0
 93
        0
 94
      127
282
     0
 72
     0
 77
     0
171
     0
175
     0
179
     0
273
     0
  0
XRECORD
  5
24
102
{ACAD_REACTORS
330
22
102
}
330
22
100
AcDbXrecord
280
     1
270
     1
271
     1
  0
XRECORD
  5
23
102
{ACAD_REACTORS
330
22
102
}
330
22
100
AcDbXrecord
280
     1
270
     1
271
     1
  0
XRECORD
  5
27
102
{ACAD_REACTORS
330
22
102
}
330
22
100
AcDbXrecord
280
     1
270
     1
271
     1
  0
XRECORD
  5
26
102
{ACAD_REACTORS
330
22
102
}
330
22
100
AcDbXrecord
280
     1
270
     1
271
     1
  0
XRECORD
  5
28
102
{ACAD_REACTORS
330
22
102
}
330
22
100
AcDbXrecord
280
     1
270
     1
271
     1
  0
XRECORD
  5
25
102
{ACAD_REACTORS
330
22
102
}
330
22
100
AcDbXrecord
280
     1
270
     1
271
     1
  0
XRECORD
  5
91F
102
{ACAD_REACTORS
330
91E
102
}
330
91E
100
AcDbXrecord
280
     1
102
ACAD_ROUNDTRIP_2012_MLEADER_STYLE
298
     1
  0
CELLSTYLEMAP
  5
91D
102
{ACAD_REACTORS
330
881
102
}
330
881
100
AcDbCellStyleMap
 90
        3
300
CELLSTYLE
  1
TABLEFORMAT_BEGIN
 90
        5
170
     1
 91
        0
 92
    32768
 62
   257
 93
        1
300
CONTENTFORMAT
  1
CONTENTFORMAT_BEGIN
 90
        0
 91
        0
 92
      512
 93
        0
300

 40
0.0
140
1.0
 94
        5
 62
     0
340
55
144
0.25
309
CONTENTFORMAT_END
171
     1
301
MARGIN
  1
CELLMARGIN_BEGIN
 40
0.06
 40
0.06
 40
0.06
 40
0.06
 40
0.18
 40
0.18
309
CELLMARGIN_END
 94
        6
 95
        1
302
GRIDFORMAT
  1
GRIDFORMAT_BEGIN
 90
        0
 91
        1
 62
     0
 92
       -2
340
0
 93
        0
 40
0.045
309
GRIDFORMAT_END
 95
        2
302
GRIDFORMAT
  1
GRIDFORMAT_BEGIN
 90
        0
 91
        1
 62
     0
 92
       -2
340
0
 93
        0
 40
0.045
309
GRIDFORMAT_END
 95
        4
302
GRIDFORMAT
  1
GRIDFORMAT_BEGIN
 90
        0
 91
        1
 62
     0
 92
       -2
340
0
 93
        0
 40
0.045
309
GRIDFORMAT_END
 95
        8
302
GRIDFORMAT
  1
GRIDFORMAT_BEGIN
 90
        0
 91
        1
 62
     0
 92
       -2
340
0
 93
        0
 40
0.045
309
GRIDFORMAT_END
 95
       16
302
GRIDFORMAT
  1
GRIDFORMAT_BEGIN
 90
        0
 91
        1
 62
     0
 92
       -2
340
0
 93
        0
 40
0.045
309
GRIDFORMAT_END
 95
       32
302
GRIDFORMAT
  1
GRIDFORMAT_BEGIN
 90
        0
 91
        1
 62
     0
 92
       -2
340
0
 93
        0
 40
0.045
309
GRIDFORMAT_END
309
TABLEFORMAT_END
  1
CELLSTYLE_BEGIN
 90
        1
 91
        1
300
_TITLE
309
CELLSTYLE_END
300
CELLSTYLE
  1
TABLEFORMAT_BEGIN
 90
        5
170
     1
 91
        0
 92
        0
 62
   257
 93
        1
300
CONTENTFORMAT
  1
CONTENTFORMAT_BEGIN
 90
        0
 91
        0
 92
      512
 93
        0
300

 40
0.0
140
1.0
 94
        5
 62
     0
340
55
144
0.18
309
CONTENTFORMAT_END
171
     1
301
MARGIN
  1
CELLMARGIN_BEGIN
 40
0.06
 40
0.06
 40
0.06
 40
0.06
 40
0.18
 40
0.18
309
CELLMARGIN_END
 94
        6
 95
        1
302
GRIDFORMAT
  1
GRIDFORMAT_BEGIN
 90
        0
 91
        1
 62
     0
 92
       -2
340
0
 93
        0
 40
0.045
309
GRIDFORMAT_END
 95
        2
302
GRIDFORMAT
  1
GRIDFORMAT_BEGIN
 90
        0
 91
        1
 62
     0
 92
       -2
340
0
 93
        0
 40
0.045
309
GRIDFORMAT_END
 95
        4
302
GRIDFORMAT
  1
GRIDFORMAT_BEGIN
 90
        0
 91
        1
 62
     0
 92
       -2
340
0
 93
        0
 40
0.045
309
GRIDFORMAT_END
 95
        8
302
GRIDFORMAT
  1
GRIDFORMAT_BEGIN
 90
        0
 91
        1
 62
     0
 92
       -2
340
0
 93
        0
 40
0.045
309
GRIDFORMAT_END
 95
       16
302
GRIDFORMAT
  1
GRIDFORMAT_BEGIN
 90
        0
 91
        1
 62
     0
 92
       -2
340
0
 93
        0
 40
0.045
309
GRIDFORMAT_END
 95
       32
302
GRIDFORMAT
  1
GRIDFORMAT_BEGIN
 90
        0
 91
        1
 62
     0
 92
       -2
340
0
 93
        0
 40
0.045
309
GRIDFORMAT_END
309
TABLEFORMAT_END
  1
CELLSTYLE_BEGIN
 90
        2
 91
        1
300
_HEADER
309
CELLSTYLE_END
300
CELLSTYLE
  1
TABLEFORMAT_BEGIN
 90
        5
170
     1
 91
        0
 92
        0
 62
   257
 93
        1
300
CONTENTFORMAT
  1
CONTENTFORMAT_BEGIN
 90
        0
 91
        0
 92
      512
 93
        0
300

 40
0.0
140
1.0
 94
        2
 62
     0
340
55
144
0.18
309
CONTENTFORMAT_END
171
     1
301
MARGIN
  1
CELLMARGIN_BEGIN
 40
0.06
 40
0.06
 40
0.06
 40
0.06
 40
0.18
 40
0.18
309
CELLMARGIN_END
 94
        6
 95
        1
302
GRIDFORMAT
  1
GRIDFORMAT_BEGIN
 90
        0
 91
        1
 62
     0
 92
       -2
340
0
 93
        0
 40
0.045
309
GRIDFORMAT_END
 95
        2
302
GRIDFORMAT
  1
GRIDFORMAT_BEGIN
 90
        0
 91
        1
 62
     0
 92
       -2
340
0
 93
        0
 40
0.045
309
GRIDFORMAT_END
 95
        4
302
GRIDFORMAT
  1
GRIDFORMAT_BEGIN
 90
        0
 91
        1
 62
     0
 92
       -2
340
0
 93
        0
 40
0.045
309
GRIDFORMAT_END
 95
        8
302
GRIDFORMAT
  1
GRIDFORMAT_BEGIN
 90
        0
 91
        1
 62
     0
 92
       -2
340
0
 93
        0
 40
0.045
309
GRIDFORMAT_END
 95
       16
302
GRIDFORMAT
  1
GRIDFORMAT_BEGIN
 90
        0
 91
        1
 62
     0
 92
       -2
340
0
 93
        0
 40
0.045
309
GRIDFORMAT_END
 95
       32
302
GRIDFORMAT
  1
GRIDFORMAT_BEGIN
 90
        0
 91
        1
 62
     0
 92
       -2
340
0
 93
        0
 40
0.045
309
GRIDFORMAT_END
309
TABLEFORMAT_END
  1
CELLSTYLE_BEGIN
 90
        3
 91
        2
300
_DATA
309
CELLSTYLE_END
  0
XRECORD
  5
986
102
{ACAD_REACTORS
330
881
102
}
330
881
100
AcDbXrecord
280
     1
102
ACAD_ROUNDTRIP_PRE2007_TABLESTYLE
 90
      512
 91
        0
  1

 92
      512
 93
        0
  2

 94
      512
 95
        0
  3

  0
XRECORD
  5
961
102
{ACAD_REACTORS
330
960
102
}
330
960
100
AcDbXrecord
280
     1
102
RTVSPropertyOp0
 70
     1
102
RTVSPropertyOp1
 70
     1
102
RTVSPropertyOp2
 70
     1
102
RTVSPropertyOp3
 70
     1
102
RTVSPropertyOp4
 70
     1
102
RTVSPropertyOp5
 70
     1
102
RTVSPropertyOp6
 70
     1
102
RTVSPropertyOp7
 70
     1
102
RTVSPropertyOp8
 70
     1
102
RTVSPropertyOp9
 70
     1
102
RTVSPropertyOp10
 70
     1
102
RTVSPropertyOp11
 70
     1
102
RTVSPropertyOp12
 70
     1
102
RTVSPropertyOp13
 70
     1
102
RTVSPropertyOp14
 70
     1
102
RTVSPropertyOp15
 70
     1
102
RTVSPropertyOp16
 70
     1
102
RTVSPropertyOp17
 70
     1
102
RTVSPropertyOp18
 70
     1
102
RTVSPropertyOp19
 70
     1
102
RTVSPropertyOp20
 70
     1
102
RTVSPropertyOp21
 70
     1
102
RTVSPropertyOp22
 70
     1
102
RTVSPropertyOp23
 70
     1
102
RTVSPropertyOp24
 70
     1
102
RTVSPropertyOp25
 70
     1
102
RTVSPropertyOp26
 70
     1
102
RTVSPropertyOp27
 70
     1
102
RTVSPropertyOp28
 70
     1
102
RTVSPropertyOp29
 70
     1
102
RTVSPropertyOp30
 70
     1
102
RTVSPropertyOp31
 70
     1
102
RTVSPropertyOp32
 70
     1
  0
XRECORD
  5
95F
102
{ACAD_REACTORS
330
95E
102
}
330
95E
100
AcDbXrecord
280
     1
102
RTVSPropertyOp0
 70
     1
102
RTVSPropertyOp1
 70
     1
102
RTVSPropertyOp2
 70
     1
102
RTVSPropertyOp3
 70
     1
102
RTVSPropertyOp4
 70
     1
102
RTVSPropertyOp5
 70
     1
102
RTVSPropertyOp6
 70
     1
102
RTVSPropertyOp7
 70
     1
102
RTVSPropertyOp8
 70
     1
102
RTVSPropertyOp9
 70
     1
102
RTVSPropertyOp10
 70
     1
102
RTVSPropertyOp11
 70
     1
102
RTVSPropertyOp12
 70
     1
102
RTVSPropertyOp13
 70
     1
102
RTVSPropertyOp14
 70
     1
102
RTVSPropertyOp15
 70
     1
102
RTVSPropertyOp16
 70
     1
102
RTVSPropertyOp17
 70
     1
102
RTVSPropertyOp18
 70
     1
102
RTVSPropertyOp19
 70
     1
102
RTVSPropertyOp20
 70
     1
102
RTVSPropertyOp21
 70
     1
102
RTVSPropertyOp22
 70
     1
102
RTVSPropertyOp23
 70
     1
102
RTVSPropertyOp24
 70
     1
102
RTVSPropertyOp25
 70
     1
102
RTVSPropertyOp26
 70
     1
102
RTVSPropertyOp27
 70
     1
102
RTVSPropertyOp28
 70
     1
102
RTVSPropertyOp29
 70
     1
102
RTVSPropertyOp30
 70
     1
102
RTVSPropertyOp31
 70
     1
102
RTVSPropertyOp32
 70
     1
  0
XRECORD
  5
96D
102
{ACAD_REACTORS
330
96C
102
}
330
96C
100
AcDbXrecord
280
     1
102
RTVSPropertyOp0
 70
     1
102
RTVSPropertyOp1
 70
     1
102
RTVSPropertyOp2
 70
     1
102
RTVSPropertyOp3
 70
     1
102
RTVSPropertyOp4
 70
     1
102
RTVSPropertyOp5
 70
     1
102
RTVSPropertyOp6
 70
     1
102
RTVSPropertyOp7
 70
     1
102
RTVSPropertyOp8
 70
     1
102
RTVSPropertyOp9
 70
     1
102
RTVSPropertyOp10
 70
     1
102
RTVSPropertyOp11
 70
     1
102
RTVSPropertyOp12
 70
     1
102
RTVSPropertyOp13
 70
     1
102
RTVSPropertyOp14
 70
     1
102
RTVSPropertyOp15
 70
     1
102
RTVSPropertyOp16
 70
     1
102
RTVSPropertyOp17
 70
     1
102
RTVSPropertyOp18
 70
     1
102
RTVSPropertyOp19
 70
     1
102
RTVSPropertyOp20
 70
     1
102
RTVSPropertyOp21
 70
     1
102
RTVSPropertyOp22
 70
     1
102
RTVSPropertyOp23
 70
     1
102
RTVSPropertyOp24
 70
     1
102
RTVSPropertyOp25
 70
     1
102
RTVSPropertyOp26
 70
     1
102
RTVSPropertyOp27
 70
     1
102
RTVSPropertyOp28
 70
     1
102
RTVSPropertyOp29
 70
     1
102
RTVSPropertyOp30
 70
     1
102
RTVSPropertyOp31
 70
     1
102
RTVSPropertyOp32
 70
     1
  0
XRECORD
  5
975
102
{ACAD_REACTORS
330
974
102
}
330
974
100
AcDbXrecord
280
     1
102
RTVSPropertyOp0
 70
     1
102
RTVSPropertyOp1
 70
     1
102
RTVSPropertyOp2
 70
     1
102
RTVSPropertyOp3
 70
     1
102
RTVSPropertyOp4
 70
     1
102
RTVSPropertyOp5
 70
     1
102
RTVSPropertyOp6
 70
     1
102
RTVSPropertyOp7
 70
     1
102
RTVSPropertyOp8
 70
     1
102
RTVSPropertyOp9
 70
     1
102
RTVSPropertyOp10
 70
     1
102
RTVSPropertyOp11
 70
     1
102
RTVSPropertyOp12
 70
     1
102
RTVSPropertyOp13
 70
     1
102
RTVSPropertyOp14
 70
     1
102
RTVSPropertyOp15
 70
     1
102
RTVSPropertyOp16
 70
     1
102
RTVSPropertyOp17
 70
     1
102
RTVSPropertyOp18
 70
     1
102
RTVSPropertyOp19
 70
     1
102
RTVSPropertyOp20
 70
     1
102
RTVSPropertyOp21
 70
     1
102
RTVSPropertyOp22
 70
     1
102
RTVSPropertyOp23
 70
     1
102
RTVSPropertyOp24
 70
     1
102
RTVSPropertyOp25
 70
     1
102
RTVSPropertyOp26
 70
     1
102
RTVSPropertyOp27
 70
     1
102
RTVSPropertyOp28
 70
     1
102
RTVSPropertyOp29
 70
     1
102
RTVSPropertyOp30
 70
     1
102
RTVSPropertyOp31
 70
     1
102
RTVSPropertyOp32
 70
     1
  0
XRECORD
  5
967
102
{ACAD_REACTORS
330
966
102
}
330
966
100
AcDbXrecord
280
     1
102
RTVSPropertyOp0
 70
     1
102
RTVSPropertyOp1
 70
     1
102
RTVSPropertyOp2
 70
     1
102
RTVSPropertyOp3
 70
     1
102
RTVSPropertyOp4
 70
     1
102
RTVSPropertyOp5
 70
     1
102
RTVSPropertyOp6
 70
     1
102
RTVSPropertyOp7
 70
     1
102
RTVSPropertyOp8
 70
     1
102
RTVSPropertyOp9
 70
     1
102
RTVSPropertyOp10
 70
     1
102
RTVSPropertyOp11
 70
     1
102
RTVSPropertyOp12
 70
     1
102
RTVSPropertyOp13
 70
     1
102
RTVSPropertyOp14
 70
     1
102
RTVSPropertyOp15
 70
     1
102
RTVSPropertyOp16
 70
     1
102
RTVSPropertyOp17
 70
     1
102
RTVSPropertyOp18
 70
     1
102
RTVSPropertyOp19
 70
     1
102
RTVSPropertyOp20
 70
     1
102
RTVSPropertyOp21
 70
     1
102
RTVSPropertyOp22
 70
     1
102
RTVSPropertyOp23
 70
     1
102
RTVSPropertyOp24
 70
     1
102
RTVSPropertyOp25
 70
     1
102
RTVSPropertyOp26
 70
     1
102
RTVSPropertyOp27
 70
     1
102
RTVSPropertyOp28
 70
     1
102
RTVSPropertyOp29
 70
     1
102
RTVSPropertyOp30
 70
     1
102
RTVSPropertyOp31
 70
     1
102
RTVSPropertyOp32
 70
     1
  0
XRECORD
  5
96B
102
{ACAD_REACTORS
330
96A
102
}
330
96A
100
AcDbXrecord
280
     1
102
RTVSPropertyOp0
 70
     1
102
RTVSPropertyOp1
 70
     1
102
RTVSPropertyOp2
 70
     1
102
RTVSPropertyOp3
 70
     1
102
RTVSPropertyOp4
 70
     1
102
RTVSPropertyOp5
 70
     1
102
RTVSPropertyOp6
 70
     1
102
RTVSPropertyOp7
 70
     1
102
RTVSPropertyOp8
 70
     1
102
RTVSPropertyOp9
 70
     1
102
RTVSPropertyOp10
 70
     1
102
RTVSPropertyOp11
 70
     1
102
RTVSPropertyOp12
 70
     1
102
RTVSPropertyOp13
 70
     1
102
RTVSPropertyOp14
 70
     1
102
RTVSPropertyOp15
 70
     1
102
RTVSPropertyOp16
 70
     1
102
RTVSPropertyOp17
 70
     1
102
RTVSPropertyOp18
 70
     1
102
RTVSPropertyOp19
 70
     1
102
RTVSPropertyOp20
 70
     1
102
RTVSPropertyOp21
 70
     1
102
RTVSPropertyOp22
 70
     1
102
RTVSPropertyOp23
 70
     1
102
RTVSPropertyOp24
 70
     1
102
RTVSPropertyOp25
 70
     1
102
RTVSPropertyOp26
 70
     1
102
RTVSPropertyOp27
 70
     1
102
RTVSPropertyOp28
 70
     1
102
RTVSPropertyOp29
 70
     1
102
RTVSPropertyOp30
 70
     1
102
RTVSPropertyOp31
 70
     1
102
RTVSPropertyOp32
 70
     1
  0
XRECORD
  5
985
102
{ACAD_REACTORS
330
984
102
}
330
984
100
AcDbXrecord
280
     1
102
RTVSPropertyOp0
 70
     0
102
RTVSPropertyOp1
 70
     0
102
RTVSPropertyOp2
 70
     0
102
RTVSPropertyOp3
 70
     0
102
RTVSPropertyOp4
 70
     0
102
RTVSPropertyOp5
 70
     0
102
RTVSPropertyOp6
 70
     0
102
RTVSPropertyOp7
 70
     0
102
RTVSPropertyOp8
 70
     0
102
RTVSPropertyOp9
 70
     0
102
RTVSPropertyOp10
 70
     0
102
RTVSPropertyOp11
 70
     0
102
RTVSPropertyOp12
 70
     0
102
RTVSPropertyOp13
 70
     0
102
RTVSPropertyOp14
 70
     2
102
RTVSPropertyOp15
 70
     0
102
RTVSPropertyOp16
 70
     0
102
RTVSPropertyOp17
 70
     0
102
RTVSPropertyOp18
 70
     0
102
RTVSPropertyOp19
 70
     0
102
RTVSPropertyOp20
 70
     0
102
RTVSPropertyOp21
 70
     0
102
RTVSPropertyOp22
 70
     0
102
RTVSPropertyOp23
 70
     0
102
RTVSPropertyOp24
 70
     0
102
RTVSPropertyOp25
 70
     0
102
RTVSPropertyOp26
 70
     0
102
RTVSPropertyOp27
 70
     0
102
RTVSPropertyOp28
 70
     0
102
RTVSPropertyOp29
 70
     0
102
RTVSPropertyOp30
 70
     0
102
RTVSPropertyOp31
 70
     0
102
RTVSPropertyOp32
 70
     0
  0
XRECORD
  5
973
102
{ACAD_REACTORS
330
972
102
}
330
972
100
AcDbXrecord
280
     1
102
RTVSPropertyOp0
 70
     1
102
RTVSPropertyOp1
 70
     1
102
RTVSPropertyOp2
 70
     1
102
RTVSPropertyOp3
 70
     1
102
RTVSPropertyOp4
 70
     1
102
RTVSPropertyOp5
 70
     1
102
RTVSPropertyOp6
 70
     1
102
RTVSPropertyOp7
 70
     1
102
RTVSPropertyOp8
 70
     1
102
RTVSPropertyOp9
 70
     1
102
RTVSPropertyOp10
 70
     1
102
RTVSPropertyOp11
 70
     1
102
RTVSPropertyOp12
 70
     1
102
RTVSPropertyOp13
 70
     1
102
RTVSPropertyOp14
 70
     1
102
RTVSPropertyOp15
 70
     1
102
RTVSPropertyOp16
 70
     1
102
RTVSPropertyOp17
 70
     1
102
RTVSPropertyOp18
 70
     1
102
RTVSPropertyOp19
 70
     1
102
RTVSPropertyOp20
 70
     1
102
RTVSPropertyOp21
 70
     1
102
RTVSPropertyOp22
 70
     1
102
RTVSPropertyOp23
 70
     1
102
RTVSPropertyOp24
 70
     1
102
RTVSPropertyOp25
 70
     1
102
RTVSPropertyOp26
 70
     1
102
RTVSPropertyOp27
 70
     1
102
RTVSPropertyOp28
 70
     1
102
RTVSPropertyOp29
 70
     1
102
RTVSPropertyOp30
 70
     1
102
RTVSPropertyOp31
 70
     1
102
RTVSPropertyOp32
 70
     1
  0
XRECORD
  5
957
102
{ACAD_REACTORS
330
956
102
}
330
956
100
AcDbXrecord
280
     1
102
RTVSPropertyOp0
 70
     1
102
RTVSPropertyOp1
 70
     1
102
RTVSPropertyOp2
 70
     1
102
RTVSPropertyOp3
 70
     1
102
RTVSPropertyOp4
 70
     1
102
RTVSPropertyOp5
 70
     1
102
RTVSPropertyOp6
 70
     1
102
RTVSPropertyOp7
 70
     1
102
RTVSPropertyOp8
 70
     1
102
RTVSPropertyOp9
 70
     1
102
RTVSPropertyOp10
 70
     1
102
RTVSPropertyOp11
 70
     1
102
RTVSPropertyOp12
 70
     1
102
RTVSPropertyOp13
 70
     1
102
RTVSPropertyOp14
 70
     1
102
RTVSPropertyOp15
 70
     1
102
RTVSPropertyOp16
 70
     1
102
RTVSPropertyOp17
 70
     1
102
RTVSPropertyOp18
 70
     1
102
RTVSPropertyOp19
 70
     1
102
RTVSPropertyOp20
 70
     1
102
RTVSPropertyOp21
 70
     1
102
RTVSPropertyOp22
 70
     1
102
RTVSPropertyOp23
 70
     1
102
RTVSPropertyOp24
 70
     1
102
RTVSPropertyOp25
 70
     1
102
RTVSPropertyOp26
 70
     1
102
RTVSPropertyOp27
 70
     1
102
RTVSPropertyOp28
 70
     1
102
RTVSPropertyOp29
 70
     1
102
RTVSPropertyOp30
 70
     1
102
RTVSPropertyOp31
 70
     1
102
RTVSPropertyOp32
 70
     1
  0
XRECORD
  5
959
102
{ACAD_REACTORS
330
958
102
}
330
958
100
AcDbXrecord
280
     1
102
RTVSPropertyOp0
 70
     1
102
RTVSPropertyOp1
 70
     1
102
RTVSPropertyOp2
 70
     1
102
RTVSPropertyOp3
 70
     1
102
RTVSPropertyOp4
 70
     1
102
RTVSPropertyOp5
 70
     1
102
RTVSPropertyOp6
 70
     1
102
RTVSPropertyOp7
 70
     1
102
RTVSPropertyOp8
 70
     1
102
RTVSPropertyOp9
 70
     1
102
RTVSPropertyOp10
 70
     1
102
RTVSPropertyOp11
 70
     1
102
RTVSPropertyOp12
 70
     1
102
RTVSPropertyOp13
 70
     1
102
RTVSPropertyOp14
 70
     1
102
RTVSPropertyOp15
 70
     1
102
RTVSPropertyOp16
 70
     1
102
RTVSPropertyOp17
 70
     1
102
RTVSPropertyOp18
 70
     1
102
RTVSPropertyOp19
 70
     1
102
RTVSPropertyOp20
 70
     1
102
RTVSPropertyOp21
 70
     1
102
RTVSPropertyOp22
 70
     1
102
RTVSPropertyOp23
 70
     1
102
RTVSPropertyOp24
 70
     1
102
RTVSPropertyOp25
 70
     1
102
RTVSPropertyOp26
 70
     1
102
RTVSPropertyOp27
 70
     1
102
RTVSPropertyOp28
 70
     1
102
RTVSPropertyOp29
 70
     1
102
RTVSPropertyOp30
 70
     1
102
RTVSPropertyOp31
 70
     1
102
RTVSPropertyOp32
 70
     1
  0
XRECORD
  5
95B
102
{ACAD_REACTORS
330
95A
102
}
330
95A
100
AcDbXrecord
280
     1
102
RTVSPropertyOp0
 70
     1
102
RTVSPropertyOp1
 70
     1
102
RTVSPropertyOp2
 70
     1
102
RTVSPropertyOp3
 70
     1
102
RTVSPropertyOp4
 70
     1
102
RTVSPropertyOp5
 70
     1
102
RTVSPropertyOp6
 70
     1
102
RTVSPropertyOp7
 70
     1
102
RTVSPropertyOp8
 70
     1
102
RTVSPropertyOp9
 70
     1
102
RTVSPropertyOp10
 70
     1
102
RTVSPropertyOp11
 70
     1
102
RTVSPropertyOp12
 70
     1
102
RTVSPropertyOp13
 70
     1
102
RTVSPropertyOp14
 70
     1
102
RTVSPropertyOp15
 70
     1
102
RTVSPropertyOp16
 70
     1
102
RTVSPropertyOp17
 70
     1
102
RTVSPropertyOp18
 70
     1
102
RTVSPropertyOp19
 70
     1
102
RTVSPropertyOp20
 70
     1
102
RTVSPropertyOp21
 70
     1
102
RTVSPropertyOp22
 70
     1
102
RTVSPropertyOp23
 70
     1
102
RTVSPropertyOp24
 70
     1
102
RTVSPropertyOp25
 70
     1
102
RTVSPropertyOp26
 70
     1
102
RTVSPropertyOp27
 70
     1
102
RTVSPropertyOp28
 70
     1
102
RTVSPropertyOp29
 70
     1
102
RTVSPropertyOp30
 70
     1
102
RTVSPropertyOp31
 70
     1
102
RTVSPropertyOp32
 70
     1
  0
XRECORD
  5
95D
102
{ACAD_REACTORS
330
95C
102
}
330
95C
100
AcDbXrecord
280
     1
102
RTVSPropertyOp0
 70
     1
102
RTVSPropertyOp1
 70
     1
102
RTVSPropertyOp2
 70
     1
102
RTVSPropertyOp3
 70
     1
102
RTVSPropertyOp4
 70
     1
102
RTVSPropertyOp5
 70
     1
102
RTVSPropertyOp6
 70
     1
102
RTVSPropertyOp7
 70
     1
102
RTVSPropertyOp8
 70
     1
102
RTVSPropertyOp9
 70
     1
102
RTVSPropertyOp10
 70
     1
102
RTVSPropertyOp11
 70
     1
102
RTVSPropertyOp12
 70
     1
102
RTVSPropertyOp13
 70
     1
102
RTVSPropertyOp14
 70
     1
102
RTVSPropertyOp15
 70
     1
102
RTVSPropertyOp16
 70
     1
102
RTVSPropertyOp17
 70
     1
102
RTVSPropertyOp18
 70
     1
102
RTVSPropertyOp19
 70
     1
102
RTVSPropertyOp20
 70
     1
102
RTVSPropertyOp21
 70
     1
102
RTVSPropertyOp22
 70
     1
102
RTVSPropertyOp23
 70
     1
102
RTVSPropertyOp24
 70
     1
102
RTVSPropertyOp25
 70
     1
102
RTVSPropertyOp26
 70
     1
102
RTVSPropertyOp27
 70
     1
102
RTVSPropertyOp28
 70
     1
102
RTVSPropertyOp29
 70
     1
102
RTVSPropertyOp30
 70
     1
102
RTVSPropertyOp31
 70
     1
102
RTVSPropertyOp32
 70
     1
  0
XRECORD
  5
965
102
{ACAD_REACTORS
330
964
102
}
330
964
100
AcDbXrecord
280
     1
102
RTVSPropertyOp0
 70
     1
102
RTVSPropertyOp1
 70
     1
102
RTVSPropertyOp2
 70
     1
102
RTVSPropertyOp3
 70
     1
102
RTVSPropertyOp4
 70
     1
102
RTVSPropertyOp5
 70
     1
102
RTVSPropertyOp6
 70
     1
102
RTVSPropertyOp7
 70
     1
102
RTVSPropertyOp8
 70
     1
102
RTVSPropertyOp9
 70
     1
102
RTVSPropertyOp10
 70
     1
102
RTVSPropertyOp11
 70
     1
102
RTVSPropertyOp12
 70
     1
102
RTVSPropertyOp13
 70
     1
102
RTVSPropertyOp14
 70
     1
102
RTVSPropertyOp15
 70
     1
102
RTVSPropertyOp16
 70
     1
102
RTVSPropertyOp17
 70
     1
102
RTVSPropertyOp18
 70
     1
102
RTVSPropertyOp19
 70
     1
102
RTVSPropertyOp20
 70
     1
102
RTVSPropertyOp21
 70
     1
102
RTVSPropertyOp22
 70
     1
102
RTVSPropertyOp23
 70
     1
102
RTVSPropertyOp24
 70
     1
102
RTVSPropertyOp25
 70
     1
102
RTVSPropertyOp26
 70
     1
102
RTVSPropertyOp27
 70
     1
102
RTVSPropertyOp28
 70
     1
102
RTVSPropertyOp29
 70
     1
102
RTVSPropertyOp30
 70
     1
102
RTVSPropertyOp31
 70
     1
102
RTVSPropertyOp32
 70
     1
  0
XRECORD
  5
981
102
{ACAD_REACTORS
330
980
102
}
330
980
100
AcDbXrecord
280
     1
102
RTVSPropertyOp0
 70
     0
102
RTVSPropertyOp1
 70
     0
102
RTVSPropertyOp2
 70
     0
102
RTVSPropertyOp3
 70
     0
102
RTVSPropertyOp4
 70
     0
102
RTVSPropertyOp5
 70
     0
102
RTVSPropertyOp6
 70
     0
102
RTVSPropertyOp7
 70
     0
102
RTVSPropertyOp8
 70
     0
102
RTVSPropertyOp9
 70
     0
102
RTVSPropertyOp10
 70
     0
102
RTVSPropertyOp11
 70
     0
102
RTVSPropertyOp12
 70
     0
102
RTVSPropertyOp13
 70
     0
102
RTVSPropertyOp14
 70
     2
102
RTVSPropertyOp15
 70
     0
102
RTVSPropertyOp16
 70
     0
102
RTVSPropertyOp17
 70
     0
102
RTVSPropertyOp18
 70
     0
102
RTVSPropertyOp19
 70
     0
102
RTVSPropertyOp20
 70
     0
102
RTVSPropertyOp21
 70
     0
102
RTVSPropertyOp22
 70
     0
102
RTVSPropertyOp23
 70
     0
102
RTVSPropertyOp24
 70
     0
102
RTVSPropertyOp25
 70
     0
102
RTVSPropertyOp26
 70
     0
102
RTVSPropertyOp27
 70
     0
102
RTVSPropertyOp28
 70
     0
102
RTVSPropertyOp29
 70
     0
102
RTVSPropertyOp30
 70
     0
102
RTVSPropertyOp31
 70
     0
102
RTVSPropertyOp32
 70
     0
  0
XRECORD
  5
971
102
{ACAD_REACTORS
330
970
102
}
330
970
100
AcDbXrecord
280
     1
102
RTVSPropertyOp0
 70
     1
102
RTVSPropertyOp1
 70
     1
102
RTVSPropertyOp2
 70
     1
102
RTVSPropertyOp3
 70
     1
102
RTVSPropertyOp4
 70
     1
102
RTVSPropertyOp5
 70
     1
102
RTVSPropertyOp6
 70
     1
102
RTVSPropertyOp7
 70
     1
102
RTVSPropertyOp8
 70
     1
102
RTVSPropertyOp9
 70
     1
102
RTVSPropertyOp10
 70
     1
102
RTVSPropertyOp11
 70
     1
102
RTVSPropertyOp12
 70
     1
102
RTVSPropertyOp13
 70
     1
102
RTVSPropertyOp14
 70
     1
102
RTVSPropertyOp15
 70
     1
102
RTVSPropertyOp16
 70
     1
102
RTVSPropertyOp17
 70
     1
102
RTVSPropertyOp18
 70
     1
102
RTVSPropertyOp19
 70
     1
102
RTVSPropertyOp20
 70
     1
102
RTVSPropertyOp21
 70
     1
102
RTVSPropertyOp22
 70
     1
102
RTVSPropertyOp23
 70
     1
102
RTVSPropertyOp24
 70
     1
102
RTVSPropertyOp25
 70
     1
102
RTVSPropertyOp26
 70
     1
102
RTVSPropertyOp27
 70
     1
102
RTVSPropertyOp28
 70
     1
102
RTVSPropertyOp29
 70
     1
102
RTVSPropertyOp30
 70
     1
102
RTVSPropertyOp31
 70
     1
102
RTVSPropertyOp32
 70
     1
  0
XRECORD
  5
983
102
{ACAD_REACTORS
330
982
102
}
330
982
100
AcDbXrecord
280
     1
102
RTVSPropertyOp0
 70
     0
102
RTVSPropertyOp1
 70
     0
102
RTVSPropertyOp2
 70
     0
102
RTVSPropertyOp3
 70
     0
102
RTVSPropertyOp4
 70
     0
102
RTVSPropertyOp5
 70
     0
102
RTVSPropertyOp6
 70
     0
102
RTVSPropertyOp7
 70
     0
102
RTVSPropertyOp8
 70
     0
102
RTVSPropertyOp9
 70
     0
102
RTVSPropertyOp10
 70
     0
102
RTVSPropertyOp11
 70
     0
102
RTVSPropertyOp12
 70
     0
102
RTVSPropertyOp13
 70
     0
102
RTVSPropertyOp14
 70
     2
102
RTVSPropertyOp15
 70
     0
102
RTVSPropertyOp16
 70
     0
102
RTVSPropertyOp17
 70
     0
102
RTVSPropertyOp18
 70
     0
102
RTVSPropertyOp19
 70
     0
102
RTVSPropertyOp20
 70
     0
102
RTVSPropertyOp21
 70
     0
102
RTVSPropertyOp22
 70
     0
102
RTVSPropertyOp23
 70
     0
102
RTVSPropertyOp24
 70
     0
102
RTVSPropertyOp25
 70
     0
102
RTVSPropertyOp26
 70
     0
102
RTVSPropertyOp27
 70
     0
102
RTVSPropertyOp28
 70
     0
102
RTVSPropertyOp29
 70
     0
102
RTVSPropertyOp30
 70
     0
102
RTVSPropertyOp31
 70
     0
102
RTVSPropertyOp32
 70
     0
  0
XRECORD
  5
969
102
{ACAD_REACTORS
330
968
102
}
330
968
100
AcDbXrecord
280
     1
102
RTVSPropertyOp0
 70
     1
102
RTVSPropertyOp1
 70
     1
102
RTVSPropertyOp2
 70
     1
102
RTVSPropertyOp3
 70
     1
102
RTVSPropertyOp4
 70
     1
102
RTVSPropertyOp5
 70
     1
102
RTVSPropertyOp6
 70
     1
102
RTVSPropertyOp7
 70
     1
102
RTVSPropertyOp8
 70
     1
102
RTVSPropertyOp9
 70
     1
102
RTVSPropertyOp10
 70
     1
102
RTVSPropertyOp11
 70
     1
102
RTVSPropertyOp12
 70
     1
102
RTVSPropertyOp13
 70
     1
102
RTVSPropertyOp14
 70
     1
102
RTVSPropertyOp15
 70
     1
102
RTVSPropertyOp16
 70
     1
102
RTVSPropertyOp17
 70
     1
102
RTVSPropertyOp18
 70
     1
102
RTVSPropertyOp19
 70
     1
102
RTVSPropertyOp20
 70
     1
102
RTVSPropertyOp21
 70
     1
102
RTVSPropertyOp22
 70
     1
102
RTVSPropertyOp23
 70
     1
102
RTVSPropertyOp24
 70
     1
102
RTVSPropertyOp25
 70
     1
102
RTVSPropertyOp26
 70
     1
102
RTVSPropertyOp27
 70
     1
102
RTVSPropertyOp28
 70
     1
102
RTVSPropertyOp29
 70
     1
102
RTVSPropertyOp30
 70
     1
102
RTVSPropertyOp31
 70
     1
102
RTVSPropertyOp32
 70
     1
  0
XRECORD
  5
97F
102
{ACAD_REACTORS
330
97E
102
}
330
97E
100
AcDbXrecord
280
     1
102
RTVSPropertyOp0
 70
     1
102
RTVSPropertyOp1
 70
     1
102
RTVSPropertyOp2
 70
     1
102
RTVSPropertyOp3
 70
     1
102
RTVSPropertyOp4
 70
     1
102
RTVSPropertyOp5
 70
     1
102
RTVSPropertyOp6
 70
     1
102
RTVSPropertyOp7
 70
     1
102
RTVSPropertyOp8
 70
     1
102
RTVSPropertyOp9
 70
     1
102
RTVSPropertyOp10
 70
     1
102
RTVSPropertyOp11
 70
     1
102
RTVSPropertyOp12
 70
     1
102
RTVSPropertyOp13
 70
     1
102
RTVSPropertyOp14
 70
     1
102
RTVSPropertyOp15
 70
     1
102
RTVSPropertyOp16
 70
     1
102
RTVSPropertyOp17
 70
     1
102
RTVSPropertyOp18
 70
     1
102
RTVSPropertyOp19
 70
     1
102
RTVSPropertyOp20
 70
     1
102
RTVSPropertyOp21
 70
     1
102
RTVSPropertyOp22
 70
     1
102
RTVSPropertyOp23
 70
     1
102
RTVSPropertyOp24
 70
     1
102
RTVSPropertyOp25
 70
     1
102
RTVSPropertyOp26
 70
     1
102
RTVSPropertyOp27
 70
     1
102
RTVSPropertyOp28
 70
     1
102
RTVSPropertyOp29
 70
     1
102
RTVSPropertyOp30
 70
     1
102
RTVSPropertyOp31
 70
     1
102
RTVSPropertyOp32
 70
     1
  0
XRECORD
  5
97D
102
{ACAD_REACTORS
330
97C
102
}
330
97C
100
AcDbXrecord
280
     1
102
RTVSPropertyOp0
 70
     1
102
RTVSPropertyOp1
 70
     1
102
RTVSPropertyOp2
 70
     1
102
RTVSPropertyOp3
 70
     1
102
RTVSPropertyOp4
 70
     1
102
RTVSPropertyOp5
 70
     1
102
RTVSPropertyOp6
 70
     1
102
RTVSPropertyOp7
 70
     1
102
RTVSPropertyOp8
 70
     1
102
RTVSPropertyOp9
 70
     1
102
RTVSPropertyOp10
 70
     1
102
RTVSPropertyOp11
 70
     1
102
RTVSPropertyOp12
 70
     1
102
RTVSPropertyOp13
 70
     1
102
RTVSPropertyOp14
 70
     1
102
RTVSPropertyOp15
 70
     1
102
RTVSPropertyOp16
 70
     1
102
RTVSPropertyOp17
 70
     1
102
RTVSPropertyOp18
 70
     1
102
RTVSPropertyOp19
 70
     1
102
RTVSPropertyOp20
 70
     1
102
RTVSPropertyOp21
 70
     1
102
RTVSPropertyOp22
 70
     1
102
RTVSPropertyOp23
 70
     1
102
RTVSPropertyOp24
 70
     1
102
RTVSPropertyOp25
 70
     1
102
RTVSPropertyOp26
 70
     1
102
RTVSPropertyOp27
 70
     1
102
RTVSPropertyOp28
 70
     1
102
RTVSPropertyOp29
 70
     1
102
RTVSPropertyOp30
 70
     1
102
RTVSPropertyOp31
 70
     1
102
RTVSPropertyOp32
 70
     1
  0
XRECORD
  5
977
102
{ACAD_REACTORS
330
976
102
}
330
976
100
AcDbXrecord
280
     1
102
RTVSPropertyOp0
 70
     1
102
RTVSPropertyOp1
 70
     1
102
RTVSPropertyOp2
 70
     1
102
RTVSPropertyOp3
 70
     1
102
RTVSPropertyOp4
 70
     1
102
RTVSPropertyOp5
 70
     1
102
RTVSPropertyOp6
 70
     1
102
RTVSPropertyOp7
 70
     1
102
RTVSPropertyOp8
 70
     1
102
RTVSPropertyOp9
 70
     1
102
RTVSPropertyOp10
 70
     1
102
RTVSPropertyOp11
 70
     1
102
RTVSPropertyOp12
 70
     1
102
RTVSPropertyOp13
 70
     1
102
RTVSPropertyOp14
 70
     1
102
RTVSPropertyOp15
 70
     1
102
RTVSPropertyOp16
 70
     1
102
RTVSPropertyOp17
 70
     1
102
RTVSPropertyOp18
 70
     1
102
RTVSPropertyOp19
 70
     1
102
RTVSPropertyOp20
 70
     1
102
RTVSPropertyOp21
 70
     1
102
RTVSPropertyOp22
 70
     1
102
RTVSPropertyOp23
 70
     1
102
RTVSPropertyOp24
 70
     1
102
RTVSPropertyOp25
 70
     1
102
RTVSPropertyOp26
 70
     1
102
RTVSPropertyOp27
 70
     1
102
RTVSPropertyOp28
 70
     1
102
RTVSPropertyOp29
 70
     1
102
RTVSPropertyOp30
 70
     1
102
RTVSPropertyOp31
 70
     1
102
RTVSPropertyOp32
 70
     1
  0
XRECORD
  5
979
102
{ACAD_REACTORS
330
978
102
}
330
978
100
AcDbXrecord
280
     1
102
RTVSPropertyOp0
 70
     1
102
RTVSPropertyOp1
 70
     1
102
RTVSPropertyOp2
 70
     1
102
RTVSPropertyOp3
 70
     1
102
RTVSPropertyOp4
 70
     1
102
RTVSPropertyOp5
 70
     1
102
RTVSPropertyOp6
 70
     1
102
RTVSPropertyOp7
 70
     1
102
RTVSPropertyOp8
 70
     1
102
RTVSPropertyOp9
 70
     1
102
RTVSPropertyOp10
 70
     1
102
RTVSPropertyOp11
 70
     1
102
RTVSPropertyOp12
 70
     1
102
RTVSPropertyOp13
 70
     1
102
RTVSPropertyOp14
 70
     1
102
RTVSPropertyOp15
 70
     1
102
RTVSPropertyOp16
 70
     1
102
RTVSPropertyOp17
 70
     1
102
RTVSPropertyOp18
 70
     1
102
RTVSPropertyOp19
 70
     1
102
RTVSPropertyOp20
 70
     1
102
RTVSPropertyOp21
 70
     1
102
RTVSPropertyOp22
 70
     1
102
RTVSPropertyOp23
 70
     1
102
RTVSPropertyOp24
 70
     1
102
RTVSPropertyOp25
 70
     1
102
RTVSPropertyOp26
 70
     1
102
RTVSPropertyOp27
 70
     1
102
RTVSPropertyOp28
 70
     1
102
RTVSPropertyOp29
 70
     1
102
RTVSPropertyOp30
 70
     1
102
RTVSPropertyOp31
 70
     1
102
RTVSPropertyOp32
 70
     1
  0
XRECORD
  5
96F
102
{ACAD_REACTORS
330
96E
102
}
330
96E
100
AcDbXrecord
280
     1
102
RTVSPropertyOp0
 70
     1
102
RTVSPropertyOp1
 70
     1
102
RTVSPropertyOp2
 70
     1
102
RTVSPropertyOp3
 70
     1
102
RTVSPropertyOp4
 70
     1
102
RTVSPropertyOp5
 70
     1
102
RTVSPropertyOp6
 70
     1
102
RTVSPropertyOp7
 70
     1
102
RTVSPropertyOp8
 70
     1
102
RTVSPropertyOp9
 70
     1
102
RTVSPropertyOp10
 70
     1
102
RTVSPropertyOp11
 70
     1
102
RTVSPropertyOp12
 70
     1
102
RTVSPropertyOp13
 70
     1
102
RTVSPropertyOp14
 70
     1
102
RTVSPropertyOp15
 70
     1
102
RTVSPropertyOp16
 70
     1
102
RTVSPropertyOp17
 70
     1
102
RTVSPropertyOp18
 70
     1
102
RTVSPropertyOp19
 70
     1
102
RTVSPropertyOp20
 70
     1
102
RTVSPropertyOp21
 70
     1
102
RTVSPropertyOp22
 70
     1
102
RTVSPropertyOp23
 70
     1
102
RTVSPropertyOp24
 70
     1
102
RTVSPropertyOp25
 70
     1
102
RTVSPropertyOp26
 70
     1
102
RTVSPropertyOp27
 70
     1
102
RTVSPropertyOp28
 70
     1
102
RTVSPropertyOp29
 70
     1
102
RTVSPropertyOp30
 70
     1
102
RTVSPropertyOp31
 70
     1
102
RTVSPropertyOp32
 70
     1
  0
XRECORD
  5
963
102
{ACAD_REACTORS
330
962
102
}
330
962
100
AcDbXrecord
280
     1
102
RTVSPropertyOp0
 70
     1
102
RTVSPropertyOp1
 70
     1
102
RTVSPropertyOp2
 70
     1
102
RTVSPropertyOp3
 70
     1
102
RTVSPropertyOp4
 70
     1
102
RTVSPropertyOp5
 70
     1
102
RTVSPropertyOp6
 70
     1
102
RTVSPropertyOp7
 70
     1
102
RTVSPropertyOp8
 70
     1
102
RTVSPropertyOp9
 70
     1
102
RTVSPropertyOp10
 70
     1
102
RTVSPropertyOp11
 70
     1
102
RTVSPropertyOp12
 70
     1
102
RTVSPropertyOp13
 70
     1
102
RTVSPropertyOp14
 70
     1
102
RTVSPropertyOp15
 70
     1
102
RTVSPropertyOp16
 70
     1
102
RTVSPropertyOp17
 70
     1
102
RTVSPropertyOp18
 70
     1
102
RTVSPropertyOp19
 70
     1
102
RTVSPropertyOp20
 70
     1
102
RTVSPropertyOp21
 70
     1
102
RTVSPropertyOp22
 70
     1
102
RTVSPropertyOp23
 70
     1
102
RTVSPropertyOp24
 70
     1
102
RTVSPropertyOp25
 70
     1
102
RTVSPropertyOp26
 70
     1
102
RTVSPropertyOp27
 70
     1
102
RTVSPropertyOp28
 70
     1
102
RTVSPropertyOp29
 70
     1
102
RTVSPropertyOp30
 70
     1
102
RTVSPropertyOp31
 70
     1
102
RTVSPropertyOp32
 70
     1
  0
XRECORD
  5
97B
102
{ACAD_REACTORS
330
97A
102
}
330
97A
100
AcDbXrecord
280
     1
102
RTVSPropertyOp0
 70
     1
102
RTVSPropertyOp1
 70
     1
102
RTVSPropertyOp2
 70
     1
102
RTVSPropertyOp3
 70
     1
102
RTVSPropertyOp4
 70
     1
102
RTVSPropertyOp5
 70
     1
102
RTVSPropertyOp6
 70
     1
102
RTVSPropertyOp7
 70
     1
102
RTVSPropertyOp8
 70
     1
102
RTVSPropertyOp9
 70
     1
102
RTVSPropertyOp10
 70
     1
102
RTVSPropertyOp11
 70
     1
102
RTVSPropertyOp12
 70
     1
102
RTVSPropertyOp13
 70
     1
102
RTVSPropertyOp14
 70
     1
102
RTVSPropertyOp15
 70
     1
102
RTVSPropertyOp16
 70
     1
102
RTVSPropertyOp17
 70
     1
102
RTVSPropertyOp18
 70
     1
102
RTVSPropertyOp19
 70
     1
102
RTVSPropertyOp20
 70
     1
102
RTVSPropertyOp21
 70
     1
102
RTVSPropertyOp22
 70
     1
102
RTVSPropertyOp23
 70
     1
102
RTVSPropertyOp24
 70
     1
102
RTVSPropertyOp25
 70
     1
102
RTVSPropertyOp26
 70
     1
102
RTVSPropertyOp27
 70
     1
102
RTVSPropertyOp28
 70
     1
102
RTVSPropertyOp29
 70
     1
102
RTVSPropertyOp30
 70
     1
102
RTVSPropertyOp31
 70
     1
102
RTVSPropertyOp32
 70
     1
  0
ENDSEC
  0
EOF
